找回密码

蓝光电影网

查看: 131|回复: 0

[惊悚] 杀戮惊魂 House.of.The.Witchdoctor.2013.1080p.AMZN.WEBRip.AAC2.0.x264-NTG 5.71GB

[复制链接]
蓝光币
426
发表于 2020-1-23 14:49:07 | 显示全部楼层 |阅读模式
杀戮惊魂 House.of.The.Witchdoctor.2013.1080p.AMZN.WEBRip.AAC2.0.x264-NTG 5.71GB-1.png

译  名 杀戮惊魂
片  名 House of the Witchdoctor
年  代 2013
产  地 美国
类  别 惊悚 / 可骇 / 犯罪
语  言 英语
IMDb评分  4.2/10 from 419 users
IMDb链接  https://www.imdb.com/title/tt2786780
豆瓣评分 0/10 from 0 users
豆瓣链接 https://movie.douban.com/subject/25931456/
片  长 87分钟
导  演 Devon Mikolas
编  剧 Devon Mikolas
主  演 比尔·莫斯利 Bill Moseley
       Leslie Easterbrook
       艾伦·凯瑟 Allan Kayser


标  签 可骇 | 美国电影 | 美国 | 英国电影 | 电影 | 犯罪 | 惊悚 | 可骇电影

简  介  

  Evil wreaks pure havoc and bloody murder upon Leslie Van Hooten, a beautiful young girl, and her unsuspecting fellow grad students as they make their way to her family's extravagant and yet isolated estate. Peter (Bill Moseley- Texas Chainsaw Massacre 3D, House of 1000 Corpses) and Irene Van Hooten (Leslie Easterbrook- The Devil's Rejects, Police Academy), the young girl's mother and father, leave the group alone for the weekend, so that she may mourn the anniversary of her boyfriend's shocking murder. But the peaceful weekend soon turns to hell when they find themselves being savagely terrorized by Cliff Rifton (Allan Kayser- Night of the Creeps, TV's Mama's Family), a crazed and recently released career criminal, and Buzz Schenk, his drug addict side kick whom are hell bent on raging a torturous killing spree. But as the horrifying acts begin to unfold, the killers soon realize all is not as it seems in this house. And when some strange people from the neighborhood show up, Rose (...
  1. Video
  2. ID                                       : 1
  3. Format                                   : AVC
  4. Format/Info                              : Advanced Video Codec
  5. Format profile                           : [email protected]
  6. Format settings                          : CABAC / 4 Ref Frames
  7. Format settings, CABAC                   : Yes
  8. Format settings, Reference frames        : 4 frames
  9. Format settings, GOP                     : M=4, N=48
  10. Codec ID                                 : V_MPEG4/ISO/AVC
  11. Duration                                 : 1 h 21 min
  12. Bit rate mode                            : Constant
  13. Bit rate                                 : 10 000 kb/s
  14. Width                                    : 1 920 pixels
  15. Height                                   : 1 080 pixels
  16. Display aspect ratio                     : 16:9
  17. Frame rate mode                          : Constant
  18. Frame rate                               : 23.976 (24000/1001) FPS
  19. Color space                              : YUV
  20. Chroma subsampling                       : 4:2:0
  21. Bit depth                                : 8 bits
  22. Scan type                                : Progressive
  23. Bits/(Pixel*Frame)                       : 0.201
  24. Stream size                              : 5.63 GiB (99%)
  25. Language                                 : English
  26. Default                                  : Yes
  27. Forced                                   : No
  28. Color range                              : Limited
  29. Color primaries                          : BT.709
  30. Transfer characteristics                 : BT.709
  31. Matrix coefficients                      : BT.709

  32. Audio
  33. ID                                       : 2
  34. Format                                   : AAC LC
  35. Format/Info                              : Advanced Audio Codec Low Complexity
  36. Codec ID                                 : A_AAC-2
  37. Duration                                 : 1 h 21 min
  38. Bit rate                                 : 125 kb/s
  39. Channel(s)                               : 2 channels
  40. Channel layout                           : L R
  41. Sampling rate                            : 48.0 kHz
  42. Frame rate                               : 46.875 FPS (1024 SPF)
  43. Compression mode                         : Lossy
  44. Stream size                              : 73.2 MiB (1%)
  45. Language                                 : English
  46. Default                                  : Yes
  47. Forced                                   : No
复制代码

杀戮惊魂 House.of.The.Witchdoctor.2013.1080p.AMZN.WEBRip.AAC2.0.x264-NTG 5.71GB-2.png 杀戮惊魂 House.of.The.Witchdoctor.2013.1080p.AMZN.WEBRip.AAC2.0.x264-NTG 5.71GB-3.png 杀戮惊魂 House.of.The.Witchdoctor.2013.1080p.AMZN.WEBRip.AAC2.0.x264-NTG 5.71GB-4.png






回复

使用道具 举报

懒得打字嘛,点击右侧快捷回复 【右侧内容,后台自定义】
您需要登录后才可以回帖 登录 | 立即加入

本版积分规则

Archiver|小黑屋| 蓝光电影网 |网站地图

Copyright © 2021 Comsenz Inc. Powered by 蓝光电影网

蓝光电影网

本站内容由用户自主分享和转载自互联网,转载目的在于传递更多信息,并不代表本网赞同其观点和对其真实性负责。

如有侵权、违反国家法律政策行为,请联系我们,我们会第一时间及时清除和处理!

举报反馈邮箱:[email protected]

快速回复 返回顶部 返回列表