找回密码

蓝光电影网

查看: 242|回复: 0

[剧情] 登陆北韩/战火雄鹰 The.Rescue.1988.1080p.AMZN.WEBRip.DDP2.0.x264-SiGMA 9.67GB

[复制链接]
蓝光币
382
发表于 2020-1-23 14:50:19 | 显示全部楼层 |阅读模式
登陆北韩/烽火雄鹰 The.Rescue.1988.1080p.AMZN.WEBRip.DDP2.0.x264-SiGMA 9.67GB-1.png

译  名 登陆北韩 / 烽火雄鹰 / 自立救济
片  名 The Rescue
年  代 1988
产  地 美国
类  别 剧情 / 行动 / 冒险
语  言 英语
上映日期 1988-08-05
IMDb评分  5.6/10 from 1064 users
IMDb链接  https://www.imdb.com/title/tt0095981
豆瓣评分 0/10 from 0 users
豆瓣链接 https://movie.douban.com/subject/1295392/
片  长 USA: 97 分钟
导  演 费迪南德 法尔法克斯 (Ferdinand Fairfax)
编  剧 吉姆 托马斯 (Jim Thomas (I)) / John Thomas (V)
主  演 爱德华·艾伯特 Edward Albert
       Ellen Barber
       蒂莫西·卡哈特 Timothy Carhart
       詹姆斯·克伦威尔 James Cromwell
       Anne E. Curry
       Jack Dacey
       凯文·狄龙 Kevin Dillon
       Ian Michael Giatti


标  签 美國 | 少年 | 反共 | 北韓 | 行动 | 冒險 | HBO

简  介  

  A group of kids venture into enemy territory in an ambitious attempt to rescue their Navy Seal fathers who were captured during a failed mission in North [email protected]
  1. Video
  2. ID                                       : 1
  3. Format                                   : AVC
  4. Format/Info                              : Advanced Video Codec
  5. Format profile                           : [email protected]
  6. Format settings                          : CABAC / 4 Ref Frames
  7. Format settings, CABAC                   : Yes
  8. Format settings, Reference frames        : 4 frames
  9. Codec ID                                 : V_MPEG4/ISO/AVC
  10. Duration                                 : 1 h 37 min
  11. Bit rate mode                            : Variable
  12. Bit rate                                 : 14.0 Mb/s
  13. Maximum bit rate                         : 15.0 Mb/s
  14. Width                                    : 1 920 pixels
  15. Height                                   : 1 080 pixels
  16. Display aspect ratio                     : 16:9
  17. Frame rate mode                          : Constant
  18. Frame rate                               : 23.976 (24000/1001) FPS
  19. Color space                              : YUV
  20. Chroma subsampling                       : 4:2:0
  21. Bit depth                                : 8 bits
  22. Scan type                                : Progressive
  23. Bits/(Pixel*Frame)                       : 0.282
  24. Stream size                              : 9.52 GiB (98%)
  25. Default                                  : Yes
  26. Forced                                   : No
  27. Color range                              : Limited
  28. Color primaries                          : BT.709
  29. Transfer characteristics                 : BT.709
  30. Matrix coefficients                      : BT.709

  31. Audio
  32. ID                                       : 2
  33. Format                                   : E-AC-3
  34. Format/Info                              : Enhanced AC-3
  35. Commercial name                          : Dolby Digital Plus
  36. Codec ID                                 : A_EAC3
  37. Duration                                 : 1 h 37 min
  38. Bit rate mode                            : Constant
  39. Bit rate                                 : 224 kb/s
  40. Channel(s)                               : 2 channels
  41. Channel layout                           : L R
  42. Sampling rate                            : 48.0 kHz
  43. Frame rate                               : 31.250 FPS (1536 SPF)
  44. Compression mode                         : Lossy
  45. Stream size                              : 156 MiB (2%)
  46. Language                                 : English
  47. Service kind                             : Complete Main
  48. Default                                  : Yes
  49. Forced                                   : No

  50. Text
  51. ID                                       : 3
  52. Format                                   : UTF-8
  53. Codec ID                                 : S_TEXT/UTF8
  54. Codec ID/Info                            : UTF-8 Plain Text
  55. Duration                                 : 1 h 33 min
  56. Bit rate                                 : 44 b/s
  57. Count of elements                        : 938
  58. Stream size                              : 30.2 KiB (0%)
  59. Language                                 : English
  60. Default                                  : No
  61. Forced                                   : No
复制代码

登陆北韩/烽火雄鹰 The.Rescue.1988.1080p.AMZN.WEBRip.DDP2.0.x264-SiGMA 9.67GB-2.png 登陆北韩/烽火雄鹰 The.Rescue.1988.1080p.AMZN.WEBRip.DDP2.0.x264-SiGMA 9.67GB-3.png 登陆北韩/烽火雄鹰 The.Rescue.1988.1080p.AMZN.WEBRip.DDP2.0.x264-SiGMA 9.67GB-4.png 登陆北韩/烽火雄鹰 The.Rescue.1988.1080p.AMZN.WEBRip.DDP2.0.x264-SiGMA 9.67GB-5.png 登陆北韩/烽火雄鹰 The.Rescue.1988.1080p.AMZN.WEBRip.DDP2.0.x264-SiGMA 9.67GB-2.png 登陆北韩/烽火雄鹰 The.Rescue.1988.1080p.AMZN.WEBRip.DDP2.0.x264-SiGMA 9.67GB-7.png






回复

使用道具 举报

懒得打字嘛,点击右侧快捷回复 【右侧内容,后台自定义】
您需要登录后才可以回帖 登录 | 立即加入

本版积分规则

Archiver|小黑屋| 蓝光电影网 |网站地图

Copyright © 2021 Comsenz Inc. Powered by 蓝光电影网

蓝光电影网

本站内容由用户自主分享和转载自互联网,转载目的在于传递更多信息,并不代表本网赞同其观点和对其真实性负责。

如有侵权、违反国家法律政策行为,请联系我们,我们会第一时间及时清除和处理!

举报反馈邮箱:[email protected]

快速回复 返回顶部 返回列表