找回密码

蓝光电影网

查看: 191|回复: 0

[喜剧] 嫉妒先生 Mr.Jealousy.1997.1080p.AMZN.WEBRip.DDP2.0.x264-monkee 7.12GB

[复制链接]
蓝光币
382
发表于 2020-1-23 14:51:54 | 显示全部楼层 |阅读模式
妒忌师长 Mr.Jealousy.1997.1080p.AMZN.WEBRip.DDP2.0.x264-monkee 7.12GB-1.png

译  名 妒忌师长
片  名 Mr. Jealousy
年  代 1997
产  地 美国
类  别 笑剧 / 恋爱
语  言 英语
上映日期 1997-09-11(多伦多电影节) / 1998-06-05(美国)
IMDb评分  6.4/10 from 1809 users
IMDb链接  https://www.imdb.com/title/tt0119717
豆瓣评分 0/10 from 0 users
豆瓣链接 https://movie.douban.com/subject/1301813/
片  长 103 分钟
导  演 诺亚·鲍姆巴赫 Noah Baumbach
编  剧 诺亚·鲍姆巴赫 Noah Baumbach
主  演 埃里克·斯托尔兹 Eric Stoltz
       安娜贝拉·莎拉 Annabella Sciorra
       克里斯·埃吉曼 Chris Eigeman
       Carlos Jacott
       玛丽安娜·琼-巴普蒂斯特 Marianne Jean-Baptiste
       布莱恩·科尔文 Brian Kerwin
       约翰·勒尔 John Lehr
       彼得·博格丹诺维奇 Peter Bogdanovich
       Vincent Polidoro
       Yvette Brooks Grant
       Jose Soto
       Delaine Yates
       Nico Baumbach
       Joel Kastelberg
       迪恩·威尔汉姆 Dean Wareham
       Leigh Zimmerman
       海伦汉芙特 Helen Hanft
       Andrew Mills
       Michelle Blakely
       诺亚·鲍姆巴赫 Noah Baumbach
       艾迪·凯伊·托马斯 Eddie Kaye Thomas
       布里吉特·芳达 Bridget Fonda
       克里斯托弗·里德 Christopher Reed


标  签 美国 | NoahBaumbach | Noah_Baumbach | 诺亚·鲍姆巴赫 | 笑剧 | 1990s | 恋爱 | 1997

简  介  

  暂无相关剧情先容
  1. Video
  2. ID                                       : 1
  3. Format                                   : AVC
  4. Format/Info                              : Advanced Video Codec
  5. Format profile                           : [email protected]
  6. Format settings                          : CABAC / 4 Ref Frames
  7. Format settings, CABAC                   : Yes
  8. Format settings, Reference frames        : 4 frames
  9. Codec ID                                 : V_MPEG4/ISO/AVC
  10. Duration                                 : 1 h 41 min
  11. Bit rate mode                            : Variable
  12. Bit rate                                 : 9 838 kb/s
  13. Maximum bit rate                         : 15.0 Mb/s
  14. Width                                    : 1 920 pixels
  15. Height                                   : 1 080 pixels
  16. Display aspect ratio                     : 16:9
  17. Frame rate mode                          : Constant
  18. Frame rate                               : 23.976 (24000/1001) FPS
  19. Color space                              : YUV
  20. Chroma subsampling                       : 4:2:0
  21. Bit depth                                : 8 bits
  22. Scan type                                : Progressive
  23. Bits/(Pixel*Frame)                       : 0.198
  24. Stream size                              : 6.96 GiB (98%)
  25. Default                                  : Yes
  26. Forced                                   : No
  27. Color range                              : Limited
  28. Color primaries                          : BT.709
  29. Transfer characteristics                 : BT.709
  30. Matrix coefficients                      : BT.709

  31. Audio
  32. ID                                       : 2
  33. Format                                   : E-AC-3
  34. Format/Info                              : Enhanced AC-3
  35. Commercial name                          : Dolby Digital Plus
  36. Codec ID                                 : A_EAC3
  37. Duration                                 : 1 h 41 min
  38. Bit rate mode                            : Constant
  39. Bit rate                                 : 224 kb/s
  40. Channel(s)                               : 2 channels
  41. Channel layout                           : L R
  42. Sampling rate                            : 48.0 kHz
  43. Frame rate                               : 31.250 FPS (1536 SPF)
  44. Compression mode                         : Lossy
  45. Stream size                              : 162 MiB (2%)
  46. Language                                 : English
  47. Service kind                             : Complete Main
  48. Default                                  : Yes
  49. Forced                                   : No

  50. Text #1
  51. ID                                       : 3
  52. Format                                   : UTF-8
  53. Codec ID                                 : S_TEXT/UTF8
  54. Codec ID/Info                            : UTF-8 Plain Text
  55. Duration                                 : 1 h 40 min
  56. Bit rate                                 : 85 b/s
  57. Count of elements                        : 2055
  58. Stream size                              : 63.4 KiB (0%)
  59. Language                                 : English
  60. Default                                  : No
  61. Forced                                   : No

  62. Text #2
  63. ID                                       : 4
  64. Format                                   : UTF-8
  65. Codec ID                                 : S_TEXT/UTF8
  66. Codec ID/Info                            : UTF-8 Plain Text
  67. Duration                                 : 1 h 40 min
  68. Bit rate                                 : 86 b/s
  69. Count of elements                        : 2078
  70. Stream size                              : 64.1 KiB (0%)
  71. Title                                    : SDH
  72. Language                                 : English
  73. Default                                  : No
  74. Forced                                   : No
复制代码

妒忌师长 Mr.Jealousy.1997.1080p.AMZN.WEBRip.DDP2.0.x264-monkee 7.12GB-1.png 妒忌师长 Mr.Jealousy.1997.1080p.AMZN.WEBRip.DDP2.0.x264-monkee 7.12GB-3.png 妒忌师长 Mr.Jealousy.1997.1080p.AMZN.WEBRip.DDP2.0.x264-monkee 7.12GB-4.png 妒忌师长 Mr.Jealousy.1997.1080p.AMZN.WEBRip.DDP2.0.x264-monkee 7.12GB-5.png 妒忌师长 Mr.Jealousy.1997.1080p.AMZN.WEBRip.DDP2.0.x264-monkee 7.12GB-6.png 妒忌师长 Mr.Jealousy.1997.1080p.AMZN.WEBRip.DDP2.0.x264-monkee 7.12GB-7.png






回复

使用道具 举报

懒得打字嘛,点击右侧快捷回复 【右侧内容,后台自定义】
您需要登录后才可以回帖 登录 | 立即加入

本版积分规则

Archiver|小黑屋| 蓝光电影网 |网站地图

Copyright © 2021 Comsenz Inc. Powered by 蓝光电影网

蓝光电影网

本站内容由用户自主分享和转载自互联网,转载目的在于传递更多信息,并不代表本网赞同其观点和对其真实性负责。

如有侵权、违反国家法律政策行为,请联系我们,我们会第一时间及时清除和处理!

举报反馈邮箱:[email protected]

快速回复 返回顶部 返回列表