找回密码

蓝光电影网

查看: 222|回复: 0

[剧情] 邂逅之时 Just.a.Sigh.2013.1080p.AMZN.WEBRip.DD5.1.x264-AJP69 8.71GB

[复制链接]
蓝光币
426
发表于 2020-1-23 14:53:21 | 显示全部楼层 |阅读模式
相逢之时 Just.a.Sigh.2013.1080p.AMZN.WEBRip.DD5.1.x264-AJP69 8.71GB-1.png

译  名 相逢之时 / Just a Sigh
片  名 Le Temps de l’aventure
年  代 2013
产  地 法国 / 比利时 / 爱尔兰
类  别 剧情 / 恋爱
语  言 法语 / 英语
上映日期 2013-04-10
IMDb评分  6.5/10 from 904 users
IMDb链接  https://www.imdb.com/title/tt2659190
豆瓣评分 7.3/10 from 76 users
豆瓣链接 https://movie.douban.com/subject/21980302/
片  长 104分钟
导  演 杰罗姆·波奈 Jér?me Bonnell
编  剧 杰罗姆·波奈 Jér?me Bonnell
主  演 艾曼纽·德芙 Emmanuelle Devos
       加布里埃尔·伯恩 Gabriel Byrne


标  签 法国 | 恋爱 | 浪漫 | 2013 | 人生 | Gabriel_Byrne | 法国电影 | JeromeBonnell

简  介  

  普通的一天。一列火车。两个陌生人。眼神相会,心跳加速。他看着她分开,永久落空她或纵容一下自己,来一次相逢又何妨?但若他的生活是以而完全脱轨怎样办?
  1. Video
  2. ID                                       : 1
  3. Format                                   : AVC
  4. Format/Info                              : Advanced Video Codec
  5. Format profile                           : [email protected]
  6. Format settings                          : CABAC / 4 Ref Frames
  7. Format settings, CABAC                   : Yes
  8. Format settings, Reference frames        : 4 frames
  9. Codec ID                                 : V_MPEG4/ISO/AVC
  10. Duration                                 : 1 h 45 min
  11. Bit rate mode                            : Variable
  12. Bit rate                                 : 11.2 Mb/s
  13. Maximum bit rate                         : 15.0 Mb/s
  14. Width                                    : 1 920 pixels
  15. Height                                   : 1 040 pixels
  16. Display aspect ratio                     : 1.85:1
  17. Frame rate mode                          : Constant
  18. Frame rate                               : 23.976 (24000/1001) FPS
  19. Color space                              : YUV
  20. Chroma subsampling                       : 4:2:0
  21. Bit depth                                : 8 bits
  22. Scan type                                : Progressive
  23. Bits/(Pixel*Frame)                       : 0.234
  24. Stream size                              : 8.24 GiB (95%)
  25. Writing library                          : x264 core 148 r2623 d5b2374
  26. Encoding settings                        : cabac=1 / ref=4 / deblock=1:-1:-1 / analyse=0x3:0x133 / me=umh / subme=9 / psy=1 / psy_rd=1.00:0.15 / mixed_ref=1 / me_range=24 / chroma_me=1 / trellis=2 / 8x8dct=1 / cqm=0 / deadzone=21,11 / fast_pskip=1 / chroma_qp_offset=-3 / threads=32 / lookahead_threads=5 / sliced_threads=0 / nr=150 / decimate=1 / interlaced=0 / bluray_compat=0 / constrained_intra=0 / bframes=8 / b_pyramid=2 / b_adapt=2 / b_bias=0 / direct=3 / weightb=1 / open_gop=0 / weightp=2 / keyint=120 / keyint_min=61 / scenecut=0 / intra_refresh=0 / rc_lookahead=120 / rc=crf / mbtree=1 / crf=18.0 / qcomp=0.60 / qpmin=0 / qpmax=69 / qpstep=4 / vbv_maxrate=15000 / vbv_bufsize=31250 / crf_max=0.0 / nal_hrd=vbr / filler=0 / ip_ratio=1.40 / aq=3:1.00
  27. Default                                  : Yes
  28. Forced                                   : No
  29. Color range                              : Limited
  30. Color primaries                          : BT.709
  31. Transfer characteristics                 : BT.709
  32. Matrix coefficients                      : BT.709

  33. Audio
  34. ID                                       : 2
  35. Format                                   : E-AC-3
  36. Format/Info                              : Enhanced AC-3
  37. Commercial name                          : Dolby Digital Plus
  38. Codec ID                                 : A_EAC3
  39. Duration                                 : 1 h 45 min
  40. Bit rate mode                            : Constant
  41. Bit rate                                 : 640 kb/s
  42. Channel(s)                               : 6 channels
  43. Channel layout                           : L R C LFE Ls Rs
  44. Sampling rate                            : 48.0 kHz
  45. Frame rate                               : 31.250 FPS (1536 SPF)
  46. Compression mode                         : Lossy
  47. Stream size                              : 482 MiB (5%)
  48. Language                                 : English
  49. Service kind                             : Complete Main
  50. Default                                  : Yes
  51. Forced                                   : No

  52. Text
  53. ID                                       : 3
  54. Format                                   : UTF-8
  55. Codec ID                                 : S_TEXT/UTF8
  56. Codec ID/Info                            : UTF-8 Plain Text
  57. Duration                                 : 1 h 37 min
  58. Bit rate                                 : 12 b/s
  59. Count of elements                        : 384
  60. Stream size                              : 8.75 KiB (0%)
  61. Title                                    : SDH
  62. Language                                 : English
  63. Default                                  : No
  64. Forced                                   : No
复制代码

相逢之时 Just.a.Sigh.2013.1080p.AMZN.WEBRip.DD5.1.x264-AJP69 8.71GB-2.png 相逢之时 Just.a.Sigh.2013.1080p.AMZN.WEBRip.DD5.1.x264-AJP69 8.71GB-3.png 相逢之时 Just.a.Sigh.2013.1080p.AMZN.WEBRip.DD5.1.x264-AJP69 8.71GB-1.png






回复

使用道具 举报

懒得打字嘛,点击右侧快捷回复 【右侧内容,后台自定义】
您需要登录后才可以回帖 登录 | 立即加入

本版积分规则

Archiver|小黑屋| 蓝光电影网 |网站地图

Copyright © 2021 Comsenz Inc. Powered by 蓝光电影网

蓝光电影网

本站内容由用户自主分享和转载自互联网,转载目的在于传递更多信息,并不代表本网赞同其观点和对其真实性负责。

如有侵权、违反国家法律政策行为,请联系我们,我们会第一时间及时清除和处理!

举报反馈邮箱:[email protected]

快速回复 返回顶部 返回列表