找回密码

蓝光电影网

查看: 160|回复: 0

[动作] 异族领主/外星人霸主 Alien.Overlords.2018.1080p.AMZN.WEBRip.DDP2.0.x264-CM 3.75GB

[复制链接]
蓝光币
382
发表于 2020-1-23 14:56:36 | 显示全部楼层 |阅读模式
异族领主/外星人霸主 Alien.Overlords.2018.1080p.AMZN.WEBRip.DDP2.0.x264-CM 3.75GB-1.png

译  名 异族领主 / 外星人霸主 / 外星霸主 / 外来统治者
片  名 Alien Overlords
年  代 2018
产  地 美国
类  别 行动
语  言 英语
上映日期 2018-09-03(美国)
IMDb评分  3.0/10 from 80 users
IMDb链接  https://www.imdb.com/title/tt8583930
豆瓣评分 5.2/10 from 115 users
豆瓣链接 https://movie.douban.com/subject/30380010/
片  长 76分钟
导  演 Richard Lowry
主  演 Victor Dante
       Paul Lauden
       Nina Sallinen
       Bette Smith


标  签 科幻 | 诡计论 | 悬疑 | 伪记载片 | 美国 | 2018 | 犯罪 | 记载

简  介  

  不明飞翔物,外星人,黑衣人,政府诡计和议程。像很多人一样,汤姆·基廷以为这些工具是妄想狂和疯子们的产物,他自己也是个思疑论者,直到他碰见了斯宾塞,一个实在的黑衣男人,一个精英内幕人士,在临终前在床上揭穿了外星人议程的骇人真相。斯宾塞归天后,汤姆被迫向天下流露一个可怕的警告,警告人类行将到来的危险,从一个精英构造,统治人类活动的各个方面。
  1. Video
  2. ID                                       : 1
  3. Format                                   : AVC
  4. Format/Info                              : Advanced Video Codec
  5. Format profile                           : [email protected]
  6. Format settings                          : CABAC / 4 Ref Frames
  7. Format settings, CABAC                   : Yes
  8. Format settings, Reference frames        : 4 frames
  9. Codec ID                                 : V_MPEG4/ISO/AVC
  10. Duration                                 : 1 h 15 min
  11. Bit rate                                 : 6 920 kb/s
  12. Width                                    : 1 920 pixels
  13. Height                                   : 1 080 pixels
  14. Display aspect ratio                     : 16:9
  15. Frame rate mode                          : Constant
  16. Frame rate                               : 29.970 (30000/1001) FPS
  17. Color space                              : YUV
  18. Chroma subsampling                       : 4:2:0
  19. Bit depth                                : 8 bits
  20. Scan type                                : Progressive
  21. Bits/(Pixel*Frame)                       : 0.111
  22. Stream size                              : 3.63 GiB (97%)
  23. Default                                  : Yes
  24. Forced                                   : No
  25. Color range                              : Limited
  26. Color primaries                          : BT.709
  27. Transfer characteristics                 : BT.709
  28. Matrix coefficients                      : BT.709

  29. Audio
  30. ID                                       : 2
  31. Format                                   : E-AC-3
  32. Format/Info                              : Enhanced AC-3
  33. Commercial name                          : Dolby Digital Plus
  34. Codec ID                                 : A_EAC3
  35. Duration                                 : 1 h 15 min
  36. Bit rate mode                            : Constant
  37. Bit rate                                 : 224 kb/s
  38. Channel(s)                               : 2 channels
  39. Channel layout                           : L R
  40. Sampling rate                            : 48.0 kHz
  41. Frame rate                               : 31.250 FPS (1536 SPF)
  42. Compression mode                         : Lossy
  43. Stream size                              : 120 MiB (3%)
  44. Title                                    : English
  45. Language                                 : English
  46. Service kind                             : Complete Main
  47. Default                                  : Yes
  48. Forced                                   : No

  49. Text
  50. ID                                       : 3
  51. Format                                   : UTF-8
  52. Codec ID                                 : S_TEXT/UTF8
  53. Codec ID/Info                            : UTF-8 Plain Text
  54. Duration                                 : 1 h 13 min
  55. Bit rate                                 : 85 b/s
  56. Count of elements                        : 1267
  57. Stream size                              : 46.2 KiB (0%)
  58. Title                                    : English [SDH]
  59. Language                                 : English
  60. Default                                  : No
  61. Forced                                   : No
复制代码

异族领主/外星人霸主 Alien.Overlords.2018.1080p.AMZN.WEBRip.DDP2.0.x264-CM 3.75GB-2.png 异族领主/外星人霸主 Alien.Overlords.2018.1080p.AMZN.WEBRip.DDP2.0.x264-CM 3.75GB-1.png 异族领主/外星人霸主 Alien.Overlords.2018.1080p.AMZN.WEBRip.DDP2.0.x264-CM 3.75GB-4.png






回复

使用道具 举报

懒得打字嘛,点击右侧快捷回复 【右侧内容,后台自定义】
您需要登录后才可以回帖 登录 | 立即加入

本版积分规则

Archiver|小黑屋| 蓝光电影网 |网站地图

Copyright © 2021 Comsenz Inc. Powered by 蓝光电影网

蓝光电影网

本站内容由用户自主分享和转载自互联网,转载目的在于传递更多信息,并不代表本网赞同其观点和对其真实性负责。

如有侵权、违反国家法律政策行为,请联系我们,我们会第一时间及时清除和处理!

举报反馈邮箱:[email protected]

快速回复 返回顶部 返回列表