找回密码

蓝光电影网

查看: 412|回复: 2

[喜剧] 神探蒲松龄 The.Knight.of.Shadows.Between.Yin.and.Yang.2019.CHINESE.1080p.BluRay.REMUX.AVC.DTS-HD.MA.5.1-FGT 17.40GB

[复制链接]
蓝光币
382
发表于 2020-1-23 21:13:22 | 显示全部楼层 |阅读模式
神探蒲松龄 The.Knight.of.Shadows.Between.Yin.and.Yang.2019.CHINESE.1080p.BluRay.REMUX.AVC.DTS-HD.MA.5.1-FGT 17.40GB-1.png

译  名 Knight of Shadows: Walker Between Halfworlds / The Knight of Shadows: Between Yin and Yang / 神探蒲松龄之兰若仙踪
片  名 神探蒲松龄
年  代 2019
产  地 中国大陆
类  别 笑剧 / 行动 / 奇异 / 古装
语  言 汉语普通话
上映日期 2019-02-05(中国大陆)
IMDb评分  4.9/10 from 760 users
IMDb链接  https://www.imdb.com/title/tt7587984
豆瓣评分 3.8/10 from 57190 users
豆瓣链接 https://movie.douban.com/subject/27065898/
片  长 108分钟
导  演 严嘉 Jia Yan
编  剧 刘伯翰 Bohan Liu / 简文
主  演 成龙 Jackie Chan
       阮经天 Ethan Juan
       钟楚曦 Elane Zhong
       林柏宏 Po-Hung Lin
       林鹏 Peng Lin
       乔杉 Shan Qiao
       潘长江 Changjiang Pan
       苑琼丹 King-Tan Yuen
       刘智福 Lance Luu
       刘智满 Mark Luu
       刘智堂 Charles Luu
       姜嫄 Yuan Jiang


标  签 奇异 | 烂片 | 笑剧 | 古装 | 2019 | 烂片当中的烂片啊~ | 国产 | 神话

简  介  

  隐居深山老林的蒲松龄(成龙 饰)不可是一位文彩飞扬的文学家,更是一个身怀特技的捉妖高手。在某次珠宝偷盗案中,蒲松龄和金华县菜鸟捕快严飞(林柏宏 饰)结识。在此以后,被衙门提出来的严飞找上山来,暮气白赖要拜蒲松龄为师。适值此时,金华县初县令(潘长江 饰)的独女被女妖聂小倩(钟楚曦 饰)摄走,中途虽有法师宁采臣(阮经天 饰)阻止,可是蜜斯却着落不明。得知此讯,蒲松龄带着严飞和一众早已收服的小妖下山捉妖,成果遭受小倩的姐姐镜妖(林鹏 饰)阻止。
  一番混战事后,虽然镜妖被除,可是宁采臣和聂小倩之间仍有一段宿缘未了……
  1. Video
  2. ID                                       : 1
  3. Format                                   : AVC
  4. Format/Info                              : Advanced Video Codec
  5. Format profile                           : [email protected]
  6. Format settings                          : CABAC / 4 Ref Frames
  7. Format settings, CABAC                   : Yes
  8. Format settings, Reference frames        : 4 frames
  9. Codec ID                                 : V_MPEG4/ISO/AVC
  10. Duration                                 : 1 h 48 min
  11. Bit rate mode                            : Variable
  12. Bit rate                                 : 17.5 Mb/s
  13. Maximum bit rate                         : 18.0 Mb/s
  14. Width                                    : 1 920 pixels
  15. Height                                   : 1 080 pixels
  16. Display aspect ratio                     : 16:9
  17. Frame rate mode                          : Constant
  18. Frame rate                               : 24.000 FPS
  19. Color space                              : YUV
  20. Chroma subsampling                       : 4:2:0
  21. Bit depth                                : 8 bits
  22. Scan type                                : Progressive
  23. Bits/(Pixel*Frame)                       : 0.352
  24. Stream size                              : 13.3 GiB (76%)
  25. Title                                    : The.Knight.of.Shadows.Between.Yin.and.Yang.2019.CHINESE.1080p.BluRay.REMUX.AVC.DTS-HD.MA.5.1-FGT
  26. Language                                 : English
  27. Default                                  : No
  28. Forced                                   : No

  29. Audio #1
  30. ID                                       : 2
  31. Format                                   : DTS XLL
  32. Format/Info                              : Digital Theater Systems
  33. Commercial name                          : DTS-HD Master Audio
  34. Codec ID                                 : A_DTS
  35. Duration                                 : 1 h 48 min
  36. Bit rate mode                            : Variable
  37. Bit rate                                 : 2 307 kb/s
  38. Channel(s)                               : 6 channels
  39. Channel layout                           : C L R Ls Rs LFE
  40. Sampling rate                            : 48.0 kHz
  41. Frame rate                               : 93.750 FPS (512 SPF)
  42. Bit depth                                : 16 bits
  43. Compression mode                         : Lossless
  44. Stream size                              : 1.75 GiB (10%)
  45. Title                                    : The.Knight.of.Shadows.Between.Yin.and.Yang.2019.CHINESE.1080p.BluRay.REMUX.AVC.DTS-HD.MA.5.1-FGT
  46. Language                                 : Chinese
  47. Default                                  : Yes
  48. Forced                                   : No

  49. Audio #2
  50. ID                                       : 3
  51. Format                                   : AC-3
  52. Format/Info                              : Audio Coding 3
  53. Commercial name                          : Dolby Digital
  54. Codec ID                                 : A_AC3
  55. Duration                                 : 1 h 48 min
  56. Bit rate mode                            : Constant
  57. Bit rate                                 : 384 kb/s
  58. Channel(s)                               : 2 channels
  59. Channel layout                           : L R
  60. Sampling rate                            : 48.0 kHz
  61. Frame rate                               : 31.250 FPS (1536 SPF)
  62. Bit depth                                : 16 bits
  63. Compression mode                         : Lossy
  64. Stream size                              : 299 MiB (2%)
  65. Title                                    : The.Knight.of.Shadows.Between.Yin.and.Yang.2019.CHINESE.1080p.BluRay.REMUX.AVC.DTS-HD.MA.5.1-FGT
  66. Language                                 : Chinese
  67. Service kind                             : Complete Main
  68. Default                                  : No
  69. Forced                                   : No

  70. Audio #3
  71. ID                                       : 4
  72. Format                                   : DTS XLL
  73. Format/Info                              : Digital Theater Systems
  74. Commercial name                          : DTS-HD Master Audio
  75. Codec ID                                 : A_DTS
  76. Duration                                 : 1 h 48 min
  77. Bit rate mode                            : Variable
  78. Bit rate                                 : 2 287 kb/s
  79. Channel(s)                               : 6 channels
  80. Channel layout                           : C L R Ls Rs LFE
  81. Sampling rate                            : 48.0 kHz
  82. Frame rate                               : 93.750 FPS (512 SPF)
  83. Bit depth                                : 16 bits
  84. Compression mode                         : Lossless
  85. Stream size                              : 1.74 GiB (10%)
  86. Title                                    : The.Knight.of.Shadows.Between.Yin.and.Yang.2019.CHINESE.1080p.BluRay.REMUX.AVC.DTS-HD.MA.5.1-FGT
  87. Language                                 : English
  88. Default                                  : No
  89. Forced                                   : No

  90. Audio #4
  91. ID                                       : 5
  92. Format                                   : AC-3
  93. Format/Info                              : Audio Coding 3
  94. Commercial name                          : Dolby Digital
  95. Codec ID                                 : A_AC3
  96. Duration                                 : 1 h 48 min
  97. Bit rate mode                            : Constant
  98. Bit rate                                 : 384 kb/s
  99. Channel(s)                               : 2 channels
  100. Channel layout                           : L R
  101. Sampling rate                            : 48.0 kHz
  102. Frame rate                               : 31.250 FPS (1536 SPF)
  103. Bit depth                                : 16 bits
  104. Compression mode                         : Lossy
  105. Stream size                              : 299 MiB (2%)
  106. Title                                    : The.Knight.of.Shadows.Between.Yin.and.Yang.2019.CHINESE.1080p.BluRay.REMUX.AVC.DTS-HD.MA.5.1-FGT
  107. Language                                 : English
  108. Service kind                             : Complete Main
  109. Default                                  : No
  110. Forced                                   : No

  111. Text #1
  112. ID                                       : 6
  113. Format                                   : UTF-8
  114. Codec ID                                 : S_TEXT/UTF8
  115. Codec ID/Info                            : UTF-8 Plain Text
  116. Duration                                 : 1 h 40 min
  117. Bit rate                                 : 41 b/s
  118. Count of elements                        : 1214
  119. Stream size                              : 30.5 KiB (0%)
  120. Title                                    : English-SRT
  121. Language                                 : English
  122. Default                                  : Yes
  123. Forced                                   : No

  124. Text #2
  125. ID                                       : 7
  126. Format                                   : PGS
  127. Muxing mode                              : zlib
  128. Codec ID                                 : S_HDMV/PGS
  129. Codec ID/Info                            : Picture based subtitle format used on BDs/HD-DVDs
  130. Duration                                 : 1 h 40 min
  131. Bit rate                                 : 27.1 kb/s
  132. Count of elements                        : 2332
  133. Stream size                              : 19.5 MiB (0%)
  134. Title                                    : English-PGS
  135. Language                                 : English
  136. Default                                  : No
  137. Forced                                   : No

  138. Menu
  139. 00:00:00.000                             : en:Chapter 01
  140. 00:06:31.958                             : en:Chapter 02
  141. 00:14:13.958                             : en:Chapter 03
  142. 00:20:45.666                             : en:Chapter 04
  143. 00:27:08.083                             : en:Chapter 05
  144. 00:36:41.416                             : en:Chapter 06
  145. 00:48:54.916                             : en:Chapter 07
  146. 00:57:53.791                             : en:Chapter 08
  147. 01:07:51.625                             : en:Chapter 09
  148. 01:18:34.541                             : en:Chapter 10
  149. 01:24:51.458                             : en:Chapter 11
  150. 01:31:20.791                             : en:Chapter 12
  151. 01:42:38.375                             : en:Chapter 13
复制代码

神探蒲松龄 The.Knight.of.Shadows.Between.Yin.and.Yang.2019.CHINESE.1080p.BluRay.REMUX.AVC.DTS-HD.MA.5.1-FGT 17.40GB-2.png 神探蒲松龄 The.Knight.of.Shadows.Between.Yin.and.Yang.2019.CHINESE.1080p.BluRay.REMUX.AVC.DTS-HD.MA.5.1-FGT 17.40GB-3.png 神探蒲松龄 The.Knight.of.Shadows.Between.Yin.and.Yang.2019.CHINESE.1080p.BluRay.REMUX.AVC.DTS-HD.MA.5.1-FGT 17.40GB-4.png






回复

使用道具 举报

蓝光币
642
发表于 2020-1-23 21:41:29 | 显示全部楼层
谢谢楼主无私分享。
回复 支持 反对

使用道具 举报

懒得打字嘛,点击右侧快捷回复 【右侧内容,后台自定义】
您需要登录后才可以回帖 登录 | 立即加入

本版积分规则

Archiver|小黑屋| 蓝光电影网 |网站地图

Copyright © 2021 Comsenz Inc. Powered by 蓝光电影网

蓝光电影网

本站内容由用户自主分享和转载自互联网,转载目的在于传递更多信息,并不代表本网赞同其观点和对其真实性负责。

如有侵权、违反国家法律政策行为,请联系我们,我们会第一时间及时清除和处理!

举报反馈邮箱:[email protected]

快速回复 返回顶部 返回列表