找回密码

蓝光电影网

查看: 355|回复: 1

[奇幻] 猫 Cats.2019.1080p.KORSUB.HDRip.x264.AAC2.0-STUTTERSHIT 3.35GB

[复制链接]
蓝光币
382
发表于 2020-1-23 22:25:59 | 显示全部楼层 |阅读模式
猫 Cats.2019.1080p.KORSUB.HDRip.x264.AAC2.0-STUTTERSHIT 3.35GB-1.png

译  名 猫
片  名 Cats
年  代 2019
产  地 美国
类  别 音乐 / 歌舞 / 奇异
语  言 英语
上映日期 2019-12-20(美国)
IMDb评分  2.8/10 from 23373 users
IMDb链接  https://www.imdb.com/title/tt5697572
豆瓣评分 4.3/10 from 1137 users
豆瓣链接 https://movie.douban.com/subject/26787585/
片  长 110分钟
导  演 汤姆·霍珀 Tom Hooper
编  剧 李·哈尔 Lee Hall / 安德鲁·洛伊德·韦伯 Andrew Lloyd Webber / T·S·艾略特 T.S. Eliot / 汤姆·霍珀 Tom Hooper
主  演 詹妮弗·哈德森 Jennifer Hudson
       泰勒·斯威夫特 Taylor Swift
       詹姆斯·柯登 James Corden
       伊德里斯·艾尔巴 Idris Elba
       朱迪·丹奇 Judi Dench
       伊恩·麦克莱恩 Ian McKellen
       蕾蓓尔·威尔森 Rebel Wilson
       雷·温斯顿 Ray Winstone
       劳伦·布尔乔亚 Laurent Bourgeois
       劳里·戴维森 Laurie Davidson
       梅特·托利 Mette Towley
       拉瑞·布尔乔亚 Larry Bourgeois
       杰森·德鲁罗 Jason Derulo
       弗朗西丝卡·海沃德 Francesca Hayward
       罗伯特·弗莱查尔德 Robert Fairchild
       Zizi Strallen


标  签 音乐剧 | 猫 | 歌舞 | 美国 | 音乐 | 2019 | 改编 | 举世

简  介  

  韦伯典范音乐剧《猫》将拍电影版,演员定为詹妮弗·哈德森、泰勒·斯威夫特、詹姆斯·柯登、伊恩·麦克莱恩。
  歌手身世、曾凭《追梦女郎》获奥斯卡最好女配的哈德森饰演“魅力猫”葛丽兹贝拉,历尽沧桑的她将唱出典范歌曲《Memory》,此外演员脚色尚未公布。汤姆·霍伯(《国王的演讲》《悲凉天下》《丹麦女孩》)执导,Lee Hall(《跳出我六合》)编剧,Working Title影业出品,11月在英国开拍。

获奖情况  

  第77届金球奖(2020)
  电影类 最好原创歌曲(提名)

  第67届美国音效剪辑协会奖(2020)
  金卷轴奖 最好音乐片音乐剪辑(提名)
  1. Video
  2. ID                                       : 1
  3. Format                                   : AVC
  4. Format/Info                              : Advanced Video Codec
  5. Format profile                           : [email protected]
  6. Format settings                          : CABAC / 4 Ref Frames
  7. Format settings, CABAC                   : Yes
  8. Format settings, Reference frames        : 4 frames
  9. Codec ID                                 : avc1
  10. Codec ID/Info                            : Advanced Video Coding
  11. Duration                                 : 1 h 40 min
  12. Bit rate                                 : 4 500 kb/s
  13. Width                                    : 1 920 pixels
  14. Height                                   : 800 pixels
  15. Display aspect ratio                     : 2.40:1
  16. Frame rate mode                          : Constant
  17. Frame rate                               : 30.000 FPS
  18. Color space                              : YUV
  19. Chroma subsampling                       : 4:2:0
  20. Bit depth                                : 8 bits
  21. Scan type                                : Progressive
  22. Bits/(Pixel*Frame)                       : 0.098
  23. Stream size                              : 3.17 GiB (94%)
  24. Title                                    : Cats.2019.1080p.KORSUB.HDRip.x264.AAC2.0-STUTTERSHIT
  25. Writing library                          : x264 core 148 r2748 97eaef2
  26. Encoding settings                        : cabac=1 / ref=4 / deblock=1:0:0 / analyse=0x3:0x113 / me=umh / subme=9 / psy=1 / psy_rd=1.00:0.00 / mixed_ref=1 / me_range=16 / chroma_me=1 / trellis=2 / 8x8dct=1 / cqm=0 / deadzone=21,11 / fast_pskip=1 / chroma_qp_offset=-2 / threads=72 / lookahead_threads=6 / sliced_threads=0 / nr=0 / decimate=1 / interlaced=0 / bluray_compat=0 / constrained_intra=0 / bframes=3 / b_pyramid=2 / b_adapt=2 / b_bias=0 / direct=3 / weightb=1 / open_gop=0 / weightp=2 / keyint=250 / keyint_min=25 / scenecut=40 / intra_refresh=0 / rc_lookahead=50 / rc=abr / mbtree=1 / bitrate=4500 / ratetol=1.0 / qcomp=0.60 / qpmin=0 / qpmax=69 / qpstep=4 / ip_ratio=1.40 / aq=1:1.00
  27. Codec configuration box                  : avcC

  28. Audio
  29. ID                                       : 2
  30. Format                                   : AAC LC
  31. Format/Info                              : Advanced Audio Codec Low Complexity
  32. Codec ID                                 : mp4a-40-2
  33. Duration                                 : 1 h 40 min
  34. Duration_LastFrame                       : -11 ms
  35. Bit rate mode                            : Constant
  36. Bit rate                                 : 256 kb/s
  37. Channel(s)                               : 2 channels
  38. Channel layout                           : L R
  39. Sampling rate                            : 48.0 kHz
  40. Frame rate                               : 46.875 FPS (1024 SPF)
  41. Compression mode                         : Lossy
  42. Stream size                              : 185 MiB (5%)
  43. Title                                    : Cats.2019.1080p.KORSUB.HDRip.x264.AAC2.0-STUTTERSHIT
  44. Language                                 : English
  45. Default                                  : Yes
  46. Alternate group                          : 1
复制代码

猫 Cats.2019.1080p.KORSUB.HDRip.x264.AAC2.0-STUTTERSHIT 3.35GB-2.png 猫 Cats.2019.1080p.KORSUB.HDRip.x264.AAC2.0-STUTTERSHIT 3.35GB-3.png 猫 Cats.2019.1080p.KORSUB.HDRip.x264.AAC2.0-STUTTERSHIT 3.35GB-4.png





回复

使用道具 举报

懒得打字嘛,点击右侧快捷回复 【右侧内容,后台自定义】
您需要登录后才可以回帖 登录 | 立即加入

本版积分规则

Archiver|小黑屋| 蓝光电影网 |网站地图

Copyright © 2021 Comsenz Inc. Powered by 蓝光电影网

蓝光电影网

本站内容由用户自主分享和转载自互联网,转载目的在于传递更多信息,并不代表本网赞同其观点和对其真实性负责。

如有侵权、违反国家法律政策行为,请联系我们,我们会第一时间及时清除和处理!

举报反馈邮箱:[email protected]

快速回复 返回顶部 返回列表