找回密码

蓝光电影网

查看: 333|回复: 0

[剧情] 儿子/男孩 The.Boys.1998.1080p.BluRay.REMUX.AVC.DTS-HD.MA.5.1-FGT 20.86GB

[复制链接]
蓝光币
426
发表于 2020-1-23 22:31:00 | 显示全部楼层 |阅读模式
儿子/男孩 The.Boys.1998.1080p.BluRay.REMUX.AVC.DTS-HD.MA.5.1-FGT 20.86GB-1.png

译  名 儿子 / 男孩
片  名 THE BOYS
年  代 1998
产  地 澳大利亚
类  别 剧情
语  言 英语
上映日期 1998-05-07
IMDb评分  7.1/10 from 1261 users
IMDb链接  https://www.imdb.com/title/tt0139898
豆瓣评分 0/10 from 0 users
豆瓣链接 https://movie.douban.com/subject/4027227/
片  长 86 分钟
导  演 Rowan Woods
编  剧 Gordon Graham / Stephen Sewell
主  演 David Wenham
       Toni Collette
       John Polson
       Lynette Curran


标  签 剧情 | 澳洲电影 | 澳大利亚 | 国外电影 | TheNecks | Rowan_Woods | RowanWoods | P-BerlinA入围主比赛

简  介  

  Brett Sprague is a violent and psychopathic man, who is released on parole after serving a sentence for assault. As he returns to his family house and we watch him and his brothers, Stevie and Glenn, for the next 24 hours, it becomes clear this day will not end well.

获奖情况  

  第48届柏林国际电影节(1998)
  金熊奖(提名) Rowan Woods
  1. Video
  2. ID                                       : 1
  3. Format                                   : AVC
  4. Format/Info                              : Advanced Video Codec
  5. Format profile                           : [email protected]
  6. Format settings                          : CABAC / 4 Ref Frames
  7. Format settings, CABAC                   : Yes
  8. Format settings, Reference frames        : 4 frames
  9. Format settings, GOP                     : M=3, N=24
  10. Codec ID                                 : V_MPEG4/ISO/AVC
  11. Duration                                 : 1 h 25 min
  12. Bit rate mode                            : Variable
  13. Bit rate                                 : 27.7 Mb/s
  14. Maximum bit rate                         : 30.0 Mb/s
  15. Width                                    : 1 920 pixels
  16. Height                                   : 1 080 pixels
  17. Display aspect ratio                     : 16:9
  18. Frame rate mode                          : Constant
  19. Frame rate                               : 24.000 FPS
  20. Color space                              : YUV
  21. Chroma subsampling                       : 4:2:0
  22. Bit depth                                : 8 bits
  23. Scan type                                : Progressive
  24. Bits/(Pixel*Frame)                       : 0.557
  25. Stream size                              : 16.5 GiB (79%)
  26. Title                                    : The.Boys.1998.1080p.BluRay.REMUX.AVC.DTS-HD.MA.5.1-FGT
  27. Language                                 : English
  28. Default                                  : No
  29. Forced                                   : No
  30. Color range                              : Limited
  31. Color primaries                          : BT.709
  32. Transfer characteristics                 : BT.709
  33. Matrix coefficients                      : BT.709

  34. Audio #1
  35. ID                                       : 2
  36. Format                                   : DTS XLL
  37. Format/Info                              : Digital Theater Systems
  38. Commercial name                          : DTS-HD Master Audio
  39. Codec ID                                 : A_DTS
  40. Duration                                 : 1 h 25 min
  41. Bit rate mode                            : Variable
  42. Bit rate                                 : 3 517 kb/s
  43. Channel(s)                               : 6 channels
  44. Channel layout                           : C L R Ls Rs LFE
  45. Sampling rate                            : 48.0 kHz
  46. Frame rate                               : 93.750 FPS (512 SPF)
  47. Bit depth                                : 24 bits
  48. Compression mode                         : Lossless
  49. Stream size                              : 2.09 GiB (10%)
  50. Title                                    : The.Boys.1998.1080p.BluRay.REMUX.AVC.DTS-HD.MA.5.1-FGT
  51. Language                                 : English
  52. Default                                  : Yes
  53. Forced                                   : No

  54. Audio #2
  55. ID                                       : 3
  56. Format                                   : PCM
  57. Format settings                          : Little / Signed
  58. Codec ID                                 : A_PCM/INT/LIT
  59. Duration                                 : 1 h 25 min
  60. Bit rate mode                            : Constant
  61. Bit rate                                 : 1 536 kb/s
  62. Channel(s)                               : 2 channels
  63. Sampling rate                            : 48.0 kHz
  64. Frame rate                               : 30.000 FPS (1600 SPF)
  65. Bit depth                                : 16 bits
  66. Stream size                              : 934 MiB (4%)
  67. Title                                    : The.Boys.1998.1080p.BluRay.REMUX.AVC.DTS-HD.MA.5.1-FGT
  68. Language                                 : English
  69. Default                                  : No
  70. Forced                                   : No

  71. Audio #3
  72. ID                                       : 4
  73. Format                                   : PCM
  74. Format settings                          : Little / Signed
  75. Codec ID                                 : A_PCM/INT/LIT
  76. Duration                                 : 1 h 25 min
  77. Bit rate mode                            : Constant
  78. Bit rate                                 : 2 304 kb/s
  79. Channel(s)                               : 2 channels
  80. Sampling rate                            : 48.0 kHz
  81. Frame rate                               : 30.000 FPS (1600 SPF)
  82. Bit depth                                : 24 bits
  83. Stream size                              : 1.37 GiB (7%)
  84. Title                                    : The.Boys.1998.1080p.BluRay.REMUX.AVC.DTS-HD.MA.5.1-FGT
  85. Language                                 : English
  86. Default                                  : No
  87. Forced                                   : No

  88. Text
  89. ID                                       : 5
  90. Format                                   : PGS
  91. Muxing mode                              : zlib
  92. Codec ID                                 : S_HDMV/PGS
  93. Codec ID/Info                            : Picture based subtitle format used on BDs/HD-DVDs
  94. Duration                                 : 1 h 18 min
  95. Bit rate                                 : 44.9 kb/s
  96. Count of elements                        : 2518
  97. Stream size                              : 25.1 MiB (0%)
  98. Title                                    : English-PGS
  99. Language                                 : English
  100. Default                                  : Yes
  101. Forced                                   : No

  102. Menu
  103. 00:00:00.000                             : en:Chapter 01
  104. 00:06:13.125                             : en:Chapter 02
  105. 00:14:09.625                             : en:Chapter 03
  106. 00:15:35.208                             : en:Chapter 04
  107. 00:19:35.041                             : en:Chapter 05
  108. 00:20:32.958                             : en:Chapter 06
  109. 00:30:10.333                             : en:Chapter 07
  110. 00:31:37.333                             : en:Chapter 08
  111. 00:38:35.208                             : en:Chapter 09
  112. 00:49:51.625                             : en:Chapter 10
  113. 00:58:41.916                             : en:Chapter 11
  114. 01:01:41.125                             : en:Chapter 12
  115. 01:04:38.083                             : en:Chapter 13
  116. 01:08:13.958                             : en:Chapter 14
  117. 01:11:35.791                             : en:Chapter 15
  118. 01:13:18.083                             : en:Chapter 16
  119. 01:14:09.083                             : en:Chapter 17
  120. 01:22:49.250                             : en:Chapter 18
复制代码

儿子/男孩 The.Boys.1998.1080p.BluRay.REMUX.AVC.DTS-HD.MA.5.1-FGT 20.86GB-2.png 儿子/男孩 The.Boys.1998.1080p.BluRay.REMUX.AVC.DTS-HD.MA.5.1-FGT 20.86GB-3.png 儿子/男孩 The.Boys.1998.1080p.BluRay.REMUX.AVC.DTS-HD.MA.5.1-FGT 20.86GB-4.png






回复

使用道具 举报

懒得打字嘛,点击右侧快捷回复 【右侧内容,后台自定义】
您需要登录后才可以回帖 登录 | 立即加入

本版积分规则

Archiver|小黑屋| 蓝光电影网 |网站地图

Copyright © 2021 Comsenz Inc. Powered by 蓝光电影网

蓝光电影网

本站内容由用户自主分享和转载自互联网,转载目的在于传递更多信息,并不代表本网赞同其观点和对其真实性负责。

如有侵权、违反国家法律政策行为,请联系我们,我们会第一时间及时清除和处理!

举报反馈邮箱:[email protected]

快速回复 返回顶部 返回列表