找回密码

蓝光电影网

查看: 302|回复: 1

[剧情] 壮志千秋 Cimarron.1960.1080p.BluRay.REMUX.AVC.DTS-HD.MA.2.0-FGT 38.01GB

[复制链接]
蓝光币
382
发表于 2020-1-23 22:33:53 | 显示全部楼层 |阅读模式
壮志千秋 Cimarron.1960.1080p.BluRay.REMUX.AVC.DTS-HD.MA.2.0-FGT 38.01GB-1.png

译  名 壮志千秋
片  名 Cimarron
年  代 1960
产  地 美国
类  别 剧情 / 西部
语  言 英语
上映日期 1961-03-24
IMDb评分  6.4/10 from 2434 users
IMDb链接  https://www.imdb.com/title/tt0053715
豆瓣评分 0/10 from 0 users
豆瓣链接 https://movie.douban.com/subject/2051852/
片  长 147 分钟
导  演 Anthony Mann / Charles Walters
编  剧 阿诺德·舒曼 Arnold Schulman / 艾德娜·费勃 Edna Ferber
主  演 格伦·福特 Glenn Ford
       玛丽亚·雪儿 Maria Schell
       安妮·巴克斯特 Anne Baxter


标  签 1960 | 西部片 | 西部 | 安妮·巴克斯特 | M美国 | 太古范例西部片 | 老电影 | 美国

简  介  

  Sorry but despite the fact that the 1931 version of this novel was the only western film to win an Academy Award for Best Picture it does not compare to the entertainment value of this version. True this is perhaps not the best adaptation of Ms. Ferber's novel, but then how many films are perfect adaptations of their source material. There are wonderful scenes missing from this adaptation, but then there are wonderful scenes missing from the adaptation of GWTW. No, I am not comparing this to a classic like GWTW. But the '31 version is not in the same class as GWTW either. This film should be taken for what it actually is, a good solid epic entertainment with spectacular scenes and good performances. Glenn Ford is perfect casting for Yancy. His performance is far superior to that of the overripe, stilted scenery chewing one delivered by Richard Dix in the original. Ford's boyish manner easily captures the charming immature nature of the character. Maria Schell is on a par with Irene Dunne. It is a pity her character was rewritten from the novel to be weaker than Ferber intended. This was obviously done to make the film Ford's but she's still gives a performance that is on the money. As so do the myriad supporting players in the film. Back in 1960, MGM obviously needed a big movie to move into the theaters that had been playing "Ben-Hur" for over a year. So this production was rushed to completion to fit the bill. The fact that it was shot in Cinemascope instead of a "Big" 70 mm process is evidence of this. It has been written that the production was shut down before the scripted ending could be filmed. This explains the rather abrupt and somewhat awkward end to the film. Perhaps a regular non "Roadshow" release might have fared better both with the critics and at the box-office. It often seems that those who praise the older version over this film have seldom actually seen the former. For many years the 1931 version was not available for viewing. During that period many film historians gushed in their praise of it. When it finally reappeared on screens most of them found it very creaky and revised their opinions but the older opinions are still in print, available and read. True, they didn't change their opinion of this version, but the older fell into proper perspective...Cinema History and rather dry history at that. While this version is not a classic it remains good entertainment. Compare it to "How The West Was Won" made by the same studio just a few years later.

获奖情况  

  第33届奥斯卡金像奖(1961)
  最好声响(提名) 富兰克林·米尔顿
  彩色片最好艺术指导和布景(提名) 休·亨特 / Otto Siegel / 乔治·W·戴维斯 / Addison Hehr / 亨利·格雷斯
  1. Video
  2. ID                                       : 1
  3. Format                                   : AVC
  4. Format/Info                              : Advanced Video Codec
  5. Format profile                           : [email protected]
  6. Format settings                          : CABAC / 4 Ref Frames
  7. Format settings, CABAC                   : Yes
  8. Format settings, Reference frames        : 4 frames
  9. Codec ID                                 : V_MPEG4/ISO/AVC
  10. Duration                                 : 2 h 27 min
  11. Bit rate mode                            : Variable
  12. Bit rate                                 : 34.9 Mb/s
  13. Maximum bit rate                         : 38.0 Mb/s
  14. Width                                    : 1 920 pixels
  15. Height                                   : 1 080 pixels
  16. Display aspect ratio                     : 16:9
  17. Frame rate mode                          : Constant
  18. Frame rate                               : 23.976 (24000/1001) FPS
  19. Color space                              : YUV
  20. Chroma subsampling                       : 4:2:0
  21. Bit depth                                : 8 bits
  22. Scan type                                : Progressive
  23. Bits/(Pixel*Frame)                       : 0.702
  24. Stream size                              : 35.9 GiB (95%)
  25. Title                                    : Cimarron.1960.1080p.BluRay.REMUX.AVC.DTS-HD.MA.2.0-FGT
  26. Language                                 : English
  27. Default                                  : No
  28. Forced                                   : No

  29. Audio
  30. ID                                       : 2
  31. Format                                   : DTS XLL
  32. Format/Info                              : Digital Theater Systems
  33. Commercial name                          : DTS-HD Master Audio
  34. Codec ID                                 : A_DTS
  35. Duration                                 : 2 h 27 min
  36. Bit rate mode                            : Variable
  37. Bit rate                                 : 1 984 kb/s
  38. Channel(s)                               : 2 channels
  39. Channel layout                           : L R
  40. Sampling rate                            : 48.0 kHz
  41. Frame rate                               : 93.750 FPS (512 SPF)
  42. Bit depth                                : 24 bits
  43. Compression mode                         : Lossless
  44. Stream size                              : 2.04 GiB (5%)
  45. Title                                    : Cimarron.1960.1080p.BluRay.REMUX.AVC.DTS-HD.MA.2.0-FGT
  46. Language                                 : English
  47. Default                                  : Yes
  48. Forced                                   : No

  49. Text
  50. ID                                       : 3
  51. Format                                   : PGS
  52. Muxing mode                              : zlib
  53. Codec ID                                 : S_HDMV/PGS
  54. Codec ID/Info                            : Picture based subtitle format used on BDs/HD-DVDs
  55. Duration                                 : 2 h 27 min
  56. Bit rate                                 : 42.7 kb/s
  57. Count of elements                        : 5518
  58. Stream size                              : 44.9 MiB (0%)
  59. Title                                    : English-PGS
  60. Language                                 : English
  61. Default                                  : Yes
  62. Forced                                   : No

  63. Menu
  64. 00:00:00.000                             : en:Chapter 01
  65. 00:02:06.167                             : en:Chapter 02
  66. 00:02:42.245                             : en:Chapter 03
  67. 00:03:40.720                             : en:Chapter 04
  68. 00:07:33.327                             : en:Chapter 05
  69. 00:09:22.478                             : en:Chapter 06
  70. 00:13:29.058                             : en:Chapter 07
  71. 00:18:09.088                             : en:Chapter 08
  72. 00:20:36.610                             : en:Chapter 09
  73. 00:24:45.358                             : en:Chapter 10
  74. 00:28:45.265                             : en:Chapter 11
  75. 00:33:38.016                             : en:Chapter 12
  76. 00:37:55.147                             : en:Chapter 13
  77. 00:43:30.691                             : en:Chapter 14
  78. 00:48:37.539                             : en:Chapter 15
  79. 00:51:35.467                             : en:Chapter 16
  80. 00:54:42.654                             : en:Chapter 17
  81. 00:58:25.502                             : en:Chapter 18
  82. 01:03:22.590                             : en:Chapter 19
  83. 01:07:30.713                             : en:Chapter 20
  84. 01:11:35.332                             : en:Chapter 21
  85. 01:17:48.330                             : en:Chapter 22
  86. 01:23:50.859                             : en:Chapter 23
  87. 01:28:30.972                             : en:Chapter 24
  88. 01:32:57.613                             : en:Chapter 25
  89. 01:36:59.396                             : en:Chapter 26
  90. 01:40:37.364                             : en:Chapter 27
  91. 01:45:46.590                             : en:Chapter 28
  92. 01:50:21.281                             : en:Chapter 29
  93. 01:54:36.578                             : en:Chapter 30
  94. 02:00:21.380                             : en:Chapter 31
  95. 02:05:35.069                             : en:Chapter 32
  96. 02:09:18.459                             : en:Chapter 33
  97. 02:13:00.597                             : en:Chapter 34
  98. 02:17:07.969                             : en:Chapter 35
  99. 02:23:05.785                             : en:Chapter 36
  100. 02:24:55.353                             : en:Chapter 37
  101. 02:27:17.954                             : en:Chapter 38
  102. 02:27:29.924                             : en:Chapter 39
复制代码

壮志千秋 Cimarron.1960.1080p.BluRay.REMUX.AVC.DTS-HD.MA.2.0-FGT 38.01GB-2.png 壮志千秋 Cimarron.1960.1080p.BluRay.REMUX.AVC.DTS-HD.MA.2.0-FGT 38.01GB-3.png 壮志千秋 Cimarron.1960.1080p.BluRay.REMUX.AVC.DTS-HD.MA.2.0-FGT 38.01GB-4.png






回复

使用道具 举报

懒得打字嘛,点击右侧快捷回复 【右侧内容,后台自定义】
您需要登录后才可以回帖 登录 | 立即加入

本版积分规则

Archiver|小黑屋| 蓝光电影网 |网站地图

Copyright © 2021 Comsenz Inc. Powered by 蓝光电影网

蓝光电影网

本站内容由用户自主分享和转载自互联网,转载目的在于传递更多信息,并不代表本网赞同其观点和对其真实性负责。

如有侵权、违反国家法律政策行为,请联系我们,我们会第一时间及时清除和处理!

举报反馈邮箱:[email protected]

快速回复 返回顶部 返回列表