找回密码

蓝光电影网

查看: 830|回复: 18

[剧情] 儿子/男孩 The.Boys.1998.1080p.BluRay.x264.DTS-FGT 7.73GB

[复制链接]
蓝光币
382
发表于 2020-1-24 10:06:22 | 显示全部楼层 |阅读模式
儿子/男孩 The.Boys.1998.1080p.BluRay.x264.DTS-FGT 7.73GB-1.png

译  名 儿子 / 男孩
片  名 THE BOYS
年  代 1998
产  地 澳大利亚
类  别 剧情
语  言 英语
上映日期 1998-05-07
IMDb评分  7.1/10 from 1261 users
IMDb链接  https://www.imdb.com/title/tt0139898
豆瓣评分 0/10 from 0 users
豆瓣链接 https://movie.douban.com/subject/4027227/
片  长 86 分钟
导  演 Rowan Woods
编  剧 Gordon Graham / Stephen Sewell
主  演 David Wenham
       Toni Collette
       John Polson
       Lynette Curran


标  签 剧情 | 澳洲电影 | 澳大利亚 | 国外电影 | TheNecks | Rowan_Woods | RowanWoods | P-BerlinA入围主比赛

简  介  

  Brett Sprague is a violent and psychopathic man, who is released on parole after serving a sentence for assault. As he returns to his family house and we watch him and his brothers, Stevie and Glenn, for the next 24 hours, it becomes clear this day will not end well.

获奖情况  

  第48届柏林国际电影节(1998)
  金熊奖(提名) Rowan Woods
  1. Video
  2. ID                                       : 1
  3. Format                                   : AVC
  4. Format/Info                              : Advanced Video Codec
  5. Format profile                           : [email protected]
  6. Format settings                          : CABAC / 4 Ref Frames
  7. Format settings, CABAC                   : Yes
  8. Format settings, Reference frames        : 4 frames
  9. Codec ID                                 : V_MPEG4/ISO/AVC
  10. Duration                                 : 1 h 25 min
  11. Bit rate                                 : 11.5 Mb/s
  12. Width                                    : 1 920 pixels
  13. Height                                   : 1 036 pixels
  14. Display aspect ratio                     : 1.85:1
  15. Frame rate mode                          : Constant
  16. Frame rate                               : 24.000 FPS
  17. Color space                              : YUV
  18. Chroma subsampling                       : 4:2:0
  19. Bit depth                                : 8 bits
  20. Scan type                                : Progressive
  21. Bits/(Pixel*Frame)                       : 0.241
  22. Stream size                              : 6.83 GiB (88%)
  23. Title                                    : The.Boys.1998.1080p.BluRay.x264.DTS-FGT
  24. Writing library                          : x264 core 148 r2748 97eaef2
  25. Encoding settings                        : cabac=1 / ref=4 / deblock=1:-2:-2 / analyse=0x3:0x113 / me=umh / subme=9 / psy=1 / psy_rd=1.00:0.15 / mixed_ref=1 / me_range=16 / chroma_me=1 / trellis=2 / 8x8dct=1 / cqm=0 / deadzone=21,11 / fast_pskip=1 / chroma_qp_offset=-3 / threads=72 / lookahead_threads=3 / sliced_threads=0 / nr=0 / decimate=1 / interlaced=0 / bluray_compat=0 / constrained_intra=0 / bframes=3 / b_pyramid=2 / b_adapt=1 / b_bias=0 / direct=3 / weightb=1 / open_gop=0 / weightp=2 / keyint=250 / keyint_min=25 / scenecut=40 / intra_refresh=0 / rc_lookahead=50 / rc=2pass / mbtree=1 / bitrate=11500 / ratetol=1.0 / qcomp=0.60 / qpmin=0 / qpmax=69 / qpstep=4 / cplxblur=20.0 / qblur=0.5 / vbv_maxrate=31250 / vbv_bufsize=31250 / nal_hrd=none / filler=0 / ip_ratio=1.40 / aq=1:1.00
  26. Language                                 : English
  27. Default                                  : Yes
  28. Forced                                   : No

  29. Audio
  30. ID                                       : 2
  31. Format                                   : DTS
  32. Format/Info                              : Digital Theater Systems
  33. Codec ID                                 : A_DTS
  34. Duration                                 : 1 h 25 min
  35. Bit rate mode                            : Constant
  36. Bit rate                                 : 1 509 kb/s
  37. Channel(s)                               : 6 channels
  38. Channel layout                           : C L R Ls Rs LFE
  39. Sampling rate                            : 48.0 kHz
  40. Frame rate                               : 93.750 FPS (512 SPF)
  41. Bit depth                                : 24 bits
  42. Compression mode                         : Lossy
  43. Stream size                              : 918 MiB (12%)
  44. Title                                    : The.Boys.1998.1080p.BluRay.x264.DTS-FGT
  45. Language                                 : English
  46. Default                                  : Yes
  47. Forced                                   : No

  48. Text
  49. ID                                       : 3
  50. Format                                   : UTF-8
  51. Codec ID                                 : S_TEXT/UTF8
  52. Codec ID/Info                            : UTF-8 Plain Text
  53. Duration                                 : 1 h 17 min
  54. Bit rate                                 : 66 b/s
  55. Count of elements                        : 1214
  56. Stream size                              : 37.3 KiB (0%)
  57. Language                                 : English
  58. Default                                  : Yes
  59. Forced                                   : No

  60. Menu
  61. 00:00:00.000                             : en:Chapter 01
  62. 00:06:13.125                             : en:Chapter 02
  63. 00:14:09.625                             : en:Chapter 03
  64. 00:15:35.208                             : en:Chapter 04
  65. 00:19:35.041                             : en:Chapter 05
  66. 00:20:32.958                             : en:Chapter 06
  67. 00:30:10.333                             : en:Chapter 07
  68. 00:31:37.333                             : en:Chapter 08
  69. 00:38:35.208                             : en:Chapter 09
  70. 00:49:51.625                             : en:Chapter 10
  71. 00:58:41.916                             : en:Chapter 11
  72. 01:01:41.125                             : en:Chapter 12
  73. 01:04:38.083                             : en:Chapter 13
  74. 01:08:13.958                             : en:Chapter 14
  75. 01:11:35.791                             : en:Chapter 15
  76. 01:13:18.083                             : en:Chapter 16
  77. 01:14:09.083                             : en:Chapter 17
  78. 01:22:49.250                             : en:Chapter 18
复制代码

儿子/男孩 The.Boys.1998.1080p.BluRay.x264.DTS-FGT 7.73GB-1.png 儿子/男孩 The.Boys.1998.1080p.BluRay.x264.DTS-FGT 7.73GB-3.png 儿子/男孩 The.Boys.1998.1080p.BluRay.x264.DTS-FGT 7.73GB-4.png






回复

使用道具 举报

懒得打字嘛,点击右侧快捷回复 【右侧内容,后台自定义】
您需要登录后才可以回帖 登录 | 立即加入

本版积分规则

Archiver|小黑屋| 蓝光电影网 |网站地图

Copyright © 2021 Comsenz Inc. Powered by 蓝光电影网

蓝光电影网

本站内容由用户自主分享和转载自互联网,转载目的在于传递更多信息,并不代表本网赞同其观点和对其真实性负责。

如有侵权、违反国家法律政策行为,请联系我们,我们会第一时间及时清除和处理!

举报反馈邮箱:[email protected]

快速回复 返回顶部 返回列表