找回密码

蓝光电影网

查看: 210|回复: 0

[喜剧] 如果星期二一定是在比利时 If.Its.Tuesday.This.Must.Be.Belgium.1969.720p.BluRay.x264-LATENCY 4.38GB

[复制链接]
蓝光币
382
发表于 2020-1-24 10:08:01 | 显示全部楼层 |阅读模式
假如星期二一定是在比利时 If.Its.Tuesday.This.Must.Be.Belgium.1969.720p.BluRay.x264-LATENCY 4.38GB-1.png

译  名 假如星期二,一定是在比利时
片  名 If It's Tuesday, This Must Be Belgium
年  代 1969
产  地 美国
类  别 笑剧 / 恋爱 / 冒险
语  言 英语
上映日期 1969-04-24
IMDb评分  6.4/10 from 1665 users
IMDb链接  https://www.imdb.com/title/tt0064471
豆瓣评分 0/10 from 0 users
豆瓣链接 https://movie.douban.com/subject/3830055/
片  长 Argentina: 105 分钟
导  演 梅尔·斯图亚特 Mel Stuart
编  剧 David Shaw
主  演 苏珊娜·普莱薛特 Suzanne Pleshette
       伊恩·麦柯肖恩 Ian McShane
       维托里奥·德·西卡 Vittorio De Sica


标  签 笑剧 | 美国 | 电影 | 美国电影 | 约翰·卡索维茨 | 恋爱 | 维托里奥·德·西卡 | 冒险

简  介  

  一群拙笨的美国旅客到访欧洲,笑话诙谐事接连发生……
  1. Video
  2. ID                                       : 1
  3. Format                                   : AVC
  4. Format/Info                              : Advanced Video Codec
  5. Format profile                           : [email protected]
  6. Format settings                          : CABAC / 5 Ref Frames
  7. Format settings, CABAC                   : Yes
  8. Format settings, Reference frames        : 5 frames
  9. Codec ID                                 : V_MPEG4/ISO/AVC
  10. Duration                                 : 1 h 38 min
  11. Bit rate                                 : 4 843 kb/s
  12. Width                                    : 1 280 pixels
  13. Height                                   : 696 pixels
  14. Display aspect ratio                     : 1.85:1
  15. Frame rate mode                          : Constant
  16. Frame rate                               : 23.976 (24000/1001) FPS
  17. Color space                              : YUV
  18. Chroma subsampling                       : 4:2:0
  19. Bit depth                                : 8 bits
  20. Scan type                                : Progressive
  21. Bits/(Pixel*Frame)                       : 0.227
  22. Stream size                              : 3.33 GiB (76%)
  23. Writing library                          : x264 core 158 r2988 7817004
  24. Encoding settings                        : cabac=1 / ref=5 / deblock=1:0:0 / analyse=0x3:0x113 / me=umh / subme=8 / psy=1 / psy_rd=1.00:0.00 / mixed_ref=1 / me_range=16 / chroma_me=1 / trellis=2 / 8x8dct=1 / cqm=0 / deadzone=21,11 / fast_pskip=0 / chroma_qp_offset=-2 / threads=22 / lookahead_threads=3 / sliced_threads=0 / nr=0 / decimate=1 / interlaced=0 / bluray_compat=0 / constrained_intra=0 / bframes=3 / b_pyramid=2 / b_adapt=1 / b_bias=0 / direct=3 / weightb=1 / open_gop=0 / weightp=2 / keyint=250 / keyint_min=23 / scenecut=40 / intra_refresh=0 / rc_lookahead=50 / rc=2pass / mbtree=1 / bitrate=4843 / ratetol=1.0 / qcomp=0.60 / qpmin=0 / qpmax=69 / qpstep=4 / cplxblur=20.0 / qblur=0.5 / ip_ratio=1.40 / aq=1:1.00
  25. Default                                  : Yes
  26. Forced                                   : No

  27. Audio
  28. ID                                       : 2
  29. Format                                   : DTS
  30. Format/Info                              : Digital Theater Systems
  31. Codec ID                                 : A_DTS
  32. Duration                                 : 1 h 38 min
  33. Bit rate mode                            : Constant
  34. Bit rate                                 : 1 509 kb/s
  35. Channel(s)                               : 2 channels
  36. Channel layout                           : L R
  37. Sampling rate                            : 48.0 kHz
  38. Frame rate                               : 93.750 FPS (512 SPF)
  39. Bit depth                                : 24 bits
  40. Compression mode                         : Lossy
  41. Stream size                              : 1.04 GiB (24%)
  42. Title                                    : English
  43. Language                                 : English
  44. Default                                  : No
  45. Forced                                   : No

  46. Text
  47. ID                                       : 3
  48. Format                                   : UTF-8
  49. Codec ID                                 : S_TEXT/UTF8
  50. Codec ID/Info                            : UTF-8 Plain Text
  51. Duration                                 : 1 h 37 min
  52. Bit rate                                 : 66 b/s
  53. Count of elements                        : 1257
  54. Stream size                              : 47.3 KiB (0%)
  55. Title                                    : English-HI
  56. Language                                 : English
  57. Default                                  : No
  58. Forced                                   : No
复制代码

假如星期二一定是在比利时 If.Its.Tuesday.This.Must.Be.Belgium.1969.720p.BluRay.x264-LATENCY 4.38GB-1.png






回复

使用道具 举报

懒得打字嘛,点击右侧快捷回复 【右侧内容,后台自定义】
您需要登录后才可以回帖 登录 | 立即加入

本版积分规则

Archiver|小黑屋| 蓝光电影网 |网站地图

Copyright © 2021 Comsenz Inc. Powered by 蓝光电影网

蓝光电影网

本站内容由用户自主分享和转载自互联网,转载目的在于传递更多信息,并不代表本网赞同其观点和对其真实性负责。

如有侵权、违反国家法律政策行为,请联系我们,我们会第一时间及时清除和处理!

举报反馈邮箱:[email protected]

快速回复 返回顶部 返回列表