找回密码

蓝光电影网

查看: 249|回复: 1

[喜剧] 如果星期二一定是在比利时 If.Its.Tuesday.This.Must.Be.Belgium.1969.1080p.BluRay.REMUX.AVC.DTS-HD.MA.2.0-FGT 21.22GB

[复制链接]
蓝光币
382
发表于 2020-1-24 10:09:36 | 显示全部楼层 |阅读模式
假如星期二一定是在比利时 If.Its.Tuesday.This.Must.Be.Belgium.1969.1080p.BluRay.REMUX.AVC.DTS-HD.MA.2.0-FGT 21.22GB-1.png

译  名 假如星期二,一定是在比利时
片  名 If It's Tuesday, This Must Be Belgium
年  代 1969
产  地 美国
类  别 笑剧 / 恋爱 / 冒险
语  言 英语
上映日期 1969-04-24
IMDb评分  6.4/10 from 1665 users
IMDb链接  https://www.imdb.com/title/tt0064471
豆瓣评分 0/10 from 0 users
豆瓣链接 https://movie.douban.com/subject/3830055/
片  长 Argentina: 105 分钟
导  演 梅尔·斯图亚特 Mel Stuart
编  剧 David Shaw
主  演 苏珊娜·普莱薛特 Suzanne Pleshette
       伊恩·麦柯肖恩 Ian McShane
       维托里奥·德·西卡 Vittorio De Sica


标  签 笑剧 | 美国 | 电影 | 美国电影 | 约翰·卡索维茨 | 恋爱 | 维托里奥·德·西卡 | 冒险

简  介  

  一群拙笨的美国旅客到访欧洲,笑话诙谐事接连发生……
  1. Video
  2. ID                                       : 1
  3. Format                                   : AVC
  4. Format/Info                              : Advanced Video Codec
  5. Format profile                           : [email protected]
  6. Format settings                          : CABAC / 4 Ref Frames
  7. Format settings, CABAC                   : Yes
  8. Format settings, Reference frames        : 4 frames
  9. Codec ID                                 : V_MPEG4/ISO/AVC
  10. Duration                                 : 1 h 38 min
  11. Bit rate mode                            : Variable
  12. Bit rate                                 : 28.8 Mb/s
  13. Maximum bit rate                         : 38.0 Mb/s
  14. Width                                    : 1 920 pixels
  15. Height                                   : 1 080 pixels
  16. Display aspect ratio                     : 16:9
  17. Frame rate mode                          : Constant
  18. Frame rate                               : 23.976 (24000/1001) FPS
  19. Color space                              : YUV
  20. Chroma subsampling                       : 4:2:0
  21. Bit depth                                : 8 bits
  22. Scan type                                : Progressive
  23. Bits/(Pixel*Frame)                       : 0.580
  24. Stream size                              : 19.8 GiB (94%)
  25. Title                                    : If.Its.Tuesday.This.Must.Be.Belgium.1969.1080p.BluRay.REMUX.AVC.DTS-HD.MA.2.0-FGT
  26. Language                                 : English
  27. Default                                  : No
  28. Forced                                   : No

  29. Audio
  30. ID                                       : 2
  31. Format                                   : DTS XLL
  32. Format/Info                              : Digital Theater Systems
  33. Commercial name                          : DTS-HD Master Audio
  34. Codec ID                                 : A_DTS
  35. Duration                                 : 1 h 38 min
  36. Bit rate mode                            : Variable
  37. Bit rate                                 : 1 958 kb/s
  38. Channel(s)                               : 2 channels
  39. Channel layout                           : L R
  40. Sampling rate                            : 48.0 kHz
  41. Frame rate                               : 93.750 FPS (512 SPF)
  42. Bit depth                                : 24 bits
  43. Compression mode                         : Lossless
  44. Stream size                              : 1.35 GiB (6%)
  45. Title                                    : If.Its.Tuesday.This.Must.Be.Belgium.1969.1080p.BluRay.REMUX.AVC.DTS-HD.MA.2.0-FGT
  46. Language                                 : English
  47. Default                                  : Yes
  48. Forced                                   : No

  49. Text
  50. ID                                       : 3
  51. Format                                   : PGS
  52. Muxing mode                              : zlib
  53. Codec ID                                 : S_HDMV/PGS
  54. Codec ID/Info                            : Picture based subtitle format used on BDs/HD-DVDs
  55. Duration                                 : 1 h 37 min
  56. Bit rate                                 : 50.1 kb/s
  57. Count of elements                        : 2516
  58. Stream size                              : 35.0 MiB (0%)
  59. Title                                    : English-PGS
  60. Language                                 : English
  61. Default                                  : Yes
  62. Forced                                   : No

  63. Menu
  64. 00:00:00.000                             : en:Chapter 01
  65. 00:11:23.265                             : en:Chapter 02
  66. 00:23:32.411                             : en:Chapter 03
  67. 00:34:26.939                             : en:Chapter 04
  68. 00:47:05.405                             : en:Chapter 05
  69. 01:01:03.493                             : en:Chapter 06
  70. 01:11:34.832                             : en:Chapter 07
  71. 01:23:56.072                             : en:Chapter 08
复制代码

假如星期二一定是在比利时 If.Its.Tuesday.This.Must.Be.Belgium.1969.1080p.BluRay.REMUX.AVC.DTS-HD.MA.2.0-FGT 21.22GB-2.png 假如星期二一定是在比利时 If.Its.Tuesday.This.Must.Be.Belgium.1969.1080p.BluRay.REMUX.AVC.DTS-HD.MA.2.0-FGT 21.22GB-4.png






回复

使用道具 举报

懒得打字嘛,点击右侧快捷回复 【右侧内容,后台自定义】
您需要登录后才可以回帖 登录 | 立即加入

本版积分规则

Archiver|小黑屋| 蓝光电影网 |网站地图

Copyright © 2021 Comsenz Inc. Powered by 蓝光电影网

蓝光电影网

本站内容由用户自主分享和转载自互联网,转载目的在于传递更多信息,并不代表本网赞同其观点和对其真实性负责。

如有侵权、违反国家法律政策行为,请联系我们,我们会第一时间及时清除和处理!

举报反馈邮箱:[email protected]

快速回复 返回顶部 返回列表