找回密码

蓝光电影网

查看: 233|回复: 1

[剧情] 约翰·亨利 John.Henry.2020.1080p.WEBRip.AAC2.0.x264-CM 4.05GB

[复制链接]
蓝光币
382
发表于 2020-1-24 15:26:22 | 显示全部楼层 |阅读模式
MV5BNDc4MDYzNzktNmU5MC00NDNhLWEyODQtM2UxZGVkMzY0Y2RkXkEyXkFqcGdeQXVyNzE5ODk1NDM@.jpg

译  名 约翰·亨利
片  名 John Henry
年  代 2019
产  地 美国
类  别 剧情 / 惊悚
语  言 英语
IMDb链接  https://www.imdb.com/title/tt8170298
豆瓣评分 0/10 from 0 users
豆瓣链接 https://movie.douban.com/subject/30237231/
导  演 Will Forbes
编  剧 Will Forbes / Doug Skinner
主  演 泰瑞·克鲁斯 Terry Crews
       卢达克里斯 Ludacris
       泰勒·阿尔瓦雷兹 Tyler Alvarez
       马斯托罗·哈雷尔 Maestro Harrell
       金博利·赫伯特·格雷戈里 Kimberly Hebert Gregory
       约瑟夫·朱利安·索里亚 Joseph Julian Soria
       Jamila Velazquez
       Dohn Norwood
       Daffany McGaray Clark
       Jamar Malachi Neighbors
       Rich Morrow
       Lyne Odums
       Yakira Chambers
       Tesiana Elie
       Julian 'Oktane' Brown


简  介  

  泰瑞·克鲁斯(《神烦警探》《大家都恨克里斯》)和Ludacris(《速度与豪情》)将主演自力电影《约翰·亨利》(John Henry),报告在南洛杉矶,以暴力交换了现在的恬静生活的男人约翰·亨利(克鲁斯)面临困难的挑选:两个移民小孩逃出了Ludacris饰演的帮派老迈的掌控,遇上了亨利。但要想帮他们摆脱窘境、未来有望,亨利必须与他布满麻烦的曩昔重新获得联系……新人导演Will Forbes执导,Jamila Velazquez(《嘻哈帝国》)、肯·佛瑞(《活死人拂晓》)等也出演。
  1. Video
  2. ID                                       : 1
  3. Format                                   : AVC
  4. Format/Info                              : Advanced Video Codec
  5. Format profile                           : [email protected]
  6. Format settings                          : CABAC / 2 Ref Frames
  7. Format settings, CABAC                   : Yes
  8. Format settings, Reference frames        : 2 frames
  9. Codec ID                                 : V_MPEG4/ISO/AVC
  10. Duration                                 : 1 h 31 min
  11. Bit rate                                 : 6 045 kb/s
  12. Width                                    : 1 920 pixels
  13. Height                                   : 1 080 pixels
  14. Display aspect ratio                     : 16:9
  15. Frame rate mode                          : Constant
  16. Frame rate                               : 23.976 (24000/1001) FPS
  17. Color space                              : YUV
  18. Chroma subsampling                       : 4:2:0
  19. Bit depth                                : 8 bits
  20. Scan type                                : Progressive
  21. Bits/(Pixel*Frame)                       : 0.122
  22. Stream size                              : 3.88 GiB (96%)
  23. Writing library                          : x264 core 155 r2901 7d0ff22
  24. Default                                  : Yes
  25. Forced                                   : No
  26. Color range                              : Limited
  27. Color primaries                          : BT.709
  28. Transfer characteristics                 : BT.709
  29. Matrix coefficients                      : BT.709

  30. Audio
  31. ID                                       : 2
  32. Format                                   : AAC LC
  33. Format/Info                              : Advanced Audio Codec Low Complexity
  34. Codec ID                                 : A_AAC-2
  35. Duration                                 : 1 h 31 min
  36. Bit rate                                 : 258 kb/s
  37. Channel(s)                               : 2 channels
  38. Channel layout                           : L R
  39. Sampling rate                            : 44.1 kHz
  40. Frame rate                               : 43.066 FPS (1024 SPF)
  41. Compression mode                         : Lossy
  42. Stream size                              : 170 MiB (4%)
  43. Language                                 : English
  44. Default                                  : Yes
  45. Forced                                   : No

  46. Text
  47. ID                                       : 3
  48. Format                                   : UTF-8
  49. Codec ID                                 : S_TEXT/UTF8
  50. Codec ID/Info                            : UTF-8 Plain Text
  51. Duration                                 : 1 h 31 min
  52. Bit rate                                 : 56 b/s
  53. Count of elements                        : 1042
  54. Stream size                              : 37.8 KiB (0%)
  55. Language                                 : English
  56. Default                                  : Yes
  57. Forced                                   : No
复制代码

约翰·亨利 John.Henry.2020.1080p.WEBRip.AAC2.0.x264-CM 4.05GB-1.png 约翰·亨利 John.Henry.2020.1080p.WEBRip.AAC2.0.x264-CM 4.05GB-2.png 约翰·亨利 John.Henry.2020.1080p.WEBRip.AAC2.0.x264-CM 4.05GB-3.png





回复

使用道具 举报

懒得打字嘛,点击右侧快捷回复 【右侧内容,后台自定义】
您需要登录后才可以回帖 登录 | 立即加入

本版积分规则

Archiver|小黑屋| 蓝光电影网 |网站地图

Copyright © 2021 Comsenz Inc. Powered by 蓝光电影网

蓝光电影网

本站内容由用户自主分享和转载自互联网,转载目的在于传递更多信息,并不代表本网赞同其观点和对其真实性负责。

如有侵权、违反国家法律政策行为,请联系我们,我们会第一时间及时清除和处理!

举报反馈邮箱:[email protected]

快速回复 返回顶部 返回列表