找回密码

蓝光电影网

查看: 217|回复: 0

[剧情] 米洛 Milo.2012.1080p.AMZN.WEBRip.DDP2.0.x264-TEPES 3.86GB

[复制链接]
蓝光币
382
发表于 2020-1-25 14:01:36 | 显示全部楼层 |阅读模式
米洛 Milo.2012.1080p.AMZN.WEBRip.DDP2.0.x264-TEPES 3.86GB-1.png

译  名 米洛
片  名 Milo
年  代 2012
产  地 荷兰
类  别 剧情
语  言 英语
上映日期 2012-11-08(荷兰)
IMDb评分  6.4/10 from 209 users
IMDb链接  https://www.imdb.com/title/tt1242658
豆瓣评分 0/10 from 0 users
豆瓣链接 https://movie.douban.com/subject/10749453/
片  长 94分钟
导  演 Berend Boorsma / Roel Boorsma
主  演 Stuart Graham
       Laura Vasiliu
       Dolf de Vries
       Lorcan Bonner
       Charlotte Bradley


标  签 荷兰电影 | 荷兰 | 儿童 | M荷兰 | 荷兰电影;童年;疾病 | 电影 | 犯罪 | 剧情

简  介  

  米洛是一位孤独的十岁小男孩,由于“皮肤敏感”,一向生活在父亲的严酷控制之下。遭到第一份友谊的鼓舞,他离家出走,去加入黉舍的露营观光——但他没有到达目标地。他落入了一对日渐衰老的罪犯佳耦手中,却享遭到了离开控制以后纯洁的自在,直到他领会了自己皮肤状态的真相,倍感震动。米洛对父爱布满迷惑,他必须直面实在的自己。

获奖情况  

  第33届荷兰电影节(2013)
  金牛奖 最好剪辑(提名) Marc Bechtold
  1. Video
  2. ID                                       : 1
  3. Format                                   : AVC
  4. Format/Info                              : Advanced Video Codec
  5. Format profile                           : [email protected]
  6. Format settings                          : CABAC / 4 Ref Frames
  7. Format settings, CABAC                   : Yes
  8. Format settings, Reference frames        : 4 frames
  9. Codec ID                                 : V_MPEG4/ISO/AVC
  10. Duration                                 : 1 h 34 min
  11. Bit rate mode                            : Constant
  12. Bit rate                                 : 5 611 kb/s
  13. Nominal bit rate                         : 10 000 kb/s
  14. Width                                    : 1 920 pixels
  15. Height                                   : 816 pixels
  16. Display aspect ratio                     : 2.35:1
  17. Frame rate mode                          : Constant
  18. Frame rate                               : 24.000 FPS
  19. Color space                              : YUV
  20. Chroma subsampling                       : 4:2:0
  21. Bit depth                                : 8 bits
  22. Scan type                                : Progressive
  23. Bits/(Pixel*Frame)                       : 0.149
  24. Stream size                              : 3.71 GiB (96%)
  25. Default                                  : Yes
  26. Forced                                   : No
  27. Color range                              : Limited
  28. Color primaries                          : BT.709
  29. Transfer characteristics                 : BT.709
  30. Matrix coefficients                      : BT.709

  31. Audio
  32. ID                                       : 2
  33. Format                                   : E-AC-3
  34. Format/Info                              : Enhanced AC-3
  35. Commercial name                          : Dolby Digital Plus
  36. Codec ID                                 : A_EAC3
  37. Duration                                 : 1 h 34 min
  38. Bit rate mode                            : Constant
  39. Bit rate                                 : 224 kb/s
  40. Channel(s)                               : 2 channels
  41. Channel layout                           : L R
  42. Sampling rate                            : 48.0 kHz
  43. Frame rate                               : 31.250 FPS (1536 SPF)
  44. Compression mode                         : Lossy
  45. Stream size                              : 152 MiB (4%)
  46. Language                                 : English
  47. Service kind                             : Complete Main
  48. Default                                  : Yes
  49. Forced                                   : No

  50. Text
  51. ID                                       : 3
  52. Format                                   : UTF-8
  53. Codec ID                                 : S_TEXT/UTF8
  54. Codec ID/Info                            : UTF-8 Plain Text
  55. Duration                                 : 1 h 33 min
  56. Bit rate                                 : 46 b/s
  57. Count of elements                        : 1041
  58. Stream size                              : 31.6 KiB (0%)
  59. Title                                    : SDH
  60. Language                                 : English
  61. Default                                  : No
  62. Forced                                   : No
复制代码

米洛 Milo.2012.1080p.AMZN.WEBRip.DDP2.0.x264-TEPES 3.86GB-2.png 米洛 Milo.2012.1080p.AMZN.WEBRip.DDP2.0.x264-TEPES 3.86GB-1.png 米洛 Milo.2012.1080p.AMZN.WEBRip.DDP2.0.x264-TEPES 3.86GB-4.png






回复

使用道具 举报

懒得打字嘛,点击右侧快捷回复 【右侧内容,后台自定义】
您需要登录后才可以回帖 登录 | 立即加入

本版积分规则

Archiver|小黑屋| 蓝光电影网 |网站地图

Copyright © 2021 Comsenz Inc. Powered by 蓝光电影网

蓝光电影网

本站内容由用户自主分享和转载自互联网,转载目的在于传递更多信息,并不代表本网赞同其观点和对其真实性负责。

如有侵权、违反国家法律政策行为,请联系我们,我们会第一时间及时清除和处理!

举报反馈邮箱:[email protected]

快速回复 返回顶部 返回列表