找回密码

蓝光电影网

查看: 293|回复: 0

[剧情] 换妻游戏 What.Other.Couples.Do.2013.720p.AMZN.WEBRip.AAC2.0.x264-TEPES 2.30GB

[复制链接]
蓝光币
382
发表于 2020-1-25 14:03:01 | 显示全部楼层 |阅读模式
换妻游戏 What.Other.Couples.Do.2013.720p.AMZN.WEBRip.AAC2.0.x264-TEPES 2.30GB-1.png

译  名 换妻游戏
片  名 What Other Couples Do
年  代 2013
产  地 美国
类  别 剧情 / 笑剧 / 恋爱
语  言 英语
上映日期 2013-09-05
IMDb评分  5.5/10 from 290 users
IMDb链接  https://www.imdb.com/title/tt2375763
豆瓣评分 0/10 from 0 users
豆瓣链接 https://movie.douban.com/subject/26417540/
片  长 87分钟
导  演 Courtney Daniels
编  剧 Courtney Daniels
主  演 Cate Beehan
       Eric Callero
       Michael Marc Friedman
       Jordan Glasser
       Alison Goodman
       Christopher Goodman
       Kristina Hayes
       Gregory Hoyt
       Hari Leigh
       Emily Maya Mills
       Robert Chester Smith


标  签 恋爱 | 美国 | 2013 | 待译 | ★情色/伦理/三级 | Indy | .

简  介  

  While at a dinner party, four married Los Angeles couples play 'a kissing game,' Seven Minutes in Heaven.
  1. Video
  2. ID                                       : 1
  3. Format                                   : AVC
  4. Format/Info                              : Advanced Video Codec
  5. Format profile                           : [email protected]
  6. Format settings                          : CABAC / 4 Ref Frames
  7. Format settings, CABAC                   : Yes
  8. Format settings, Reference frames        : 4 frames
  9. Format settings, GOP                     : M=4, N=48
  10. Codec ID                                 : V_MPEG4/ISO/AVC
  11. Duration                                 : 1 h 27 min
  12. Bit rate mode                            : Constant
  13. Bit rate                                 : 3 656 kb/s
  14. Nominal bit rate                         : 6 000 kb/s
  15. Width                                    : 1 280 pixels
  16. Height                                   : 544 pixels
  17. Display aspect ratio                     : 2.35:1
  18. Original display aspect ratio            : 2.35:1
  19. Frame rate mode                          : Constant
  20. Frame rate                               : 23.976 (24000/1001) FPS
  21. Color space                              : YUV
  22. Chroma subsampling                       : 4:2:0
  23. Bit depth                                : 8 bits
  24. Scan type                                : Progressive
  25. Bits/(Pixel*Frame)                       : 0.219
  26. Stream size                              : 2.22 GiB (97%)
  27. Default                                  : Yes
  28. Forced                                   : No
  29. Color range                              : Limited
  30. Color primaries                          : BT.709
  31. Transfer characteristics                 : BT.709
  32. Matrix coefficients                      : BT.709

  33. Audio
  34. ID                                       : 2
  35. Format                                   : AAC LC
  36. Format/Info                              : Advanced Audio Codec Low Complexity
  37. Codec ID                                 : A_AAC-2
  38. Duration                                 : 1 h 27 min
  39. Bit rate                                 : 128 kb/s
  40. Channel(s)                               : 2 channels
  41. Channel layout                           : L R
  42. Sampling rate                            : 48.0 kHz
  43. Frame rate                               : 46.875 FPS (1024 SPF)
  44. Compression mode                         : Lossy
  45. Stream size                              : 79.7 MiB (3%)
  46. Language                                 : English
  47. Default                                  : Yes
  48. Forced                                   : No

  49. Text
  50. ID                                       : 3
  51. Format                                   : UTF-8
  52. Codec ID                                 : S_TEXT/UTF8
  53. Codec ID/Info                            : UTF-8 Plain Text
  54. Duration                                 : 1 h 23 min
  55. Bit rate                                 : 87 b/s
  56. Count of elements                        : 1406
  57. Stream size                              : 53.3 KiB (0%)
  58. Title                                    : SDH
  59. Language                                 : English
  60. Default                                  : No
  61. Forced                                   : No

  62. Menu
  63. 00:00:00.000                             : en:Everyone gets ready for dinner
  64. 00:07:29.000                             : en:Title Sequence
  65. 00:07:33.000                             : en:Ryan and Bree arrive
  66. 00:11:22.000                             : en:Ginger arrives
  67. 00:15:36.000                             : en:Everyone sits down to dinner
  68. 00:20:24.000                             : en:Divorce Rate
  69. 00:22:05.000                             : en:Everyone decides to stay the night
  70. 00:28:51.000                             : en:The guys play cards
  71. 00:34:50.000                             : en:Donuts
  72. 00:37:33.000                             : en:The girls propose a game
  73. 00:40:06.000                             : en:Michelle and Ryan decide to play
  74. 00:45:16.000                             : en:Ryan and Bree share an honest moment
  75. 00:50:55.000                             : en:Lisa and Dave go first
  76. 00:55:22.000                             : en:Ginger and Josh
  77. 00:58:55.000                             : en:Michelle and Chris
  78. 01:02:52.000                             : en:Brad and Ginger talk
  79. 01:05:31.000                             : en:Brad and Lisa
  80. 01:06:49.000                             : en:Aftermath
  81. 01:11:38.000                             : en:The couples go to bed for the night
  82. 01:17:50.000                             : en:The day after
  83. 01:20:06.000                             : en:The couples leave the house
  84. 01:23:17.000                             : en:End Credits
复制代码

换妻游戏 What.Other.Couples.Do.2013.720p.AMZN.WEBRip.AAC2.0.x264-TEPES 2.30GB-2.png 换妻游戏 What.Other.Couples.Do.2013.720p.AMZN.WEBRip.AAC2.0.x264-TEPES 2.30GB-3.png 换妻游戏 What.Other.Couples.Do.2013.720p.AMZN.WEBRip.AAC2.0.x264-TEPES 2.30GB-1.png






回复

使用道具 举报

懒得打字嘛,点击右侧快捷回复 【右侧内容,后台自定义】
您需要登录后才可以回帖 登录 | 立即加入

本版积分规则

Archiver|小黑屋| 蓝光电影网 |网站地图

Copyright © 2021 Comsenz Inc. Powered by 蓝光电影网

蓝光电影网

本站内容由用户自主分享和转载自互联网,转载目的在于传递更多信息,并不代表本网赞同其观点和对其真实性负责。

如有侵权、违反国家法律政策行为,请联系我们,我们会第一时间及时清除和处理!

举报反馈邮箱:[email protected]

快速回复 返回顶部 返回列表