找回密码

蓝光电影网

查看: 203|回复: 1

[惊悚] 寄宿男孩 The.Boarder.2012.1080p.AMZN.WEBRip.DDP2.0.x264-TEPES 6.06GB

[复制链接]
蓝光币
382
发表于 2020-1-25 14:05:50 | 显示全部楼层 |阅读模式
寄宿男孩 The.Boarder.2012.1080p.AMZN.WEBRip.DDP2.0.x264-TEPES 6.06GB-1.png

译  名 寄宿男孩 / Troubled Child
片  名 The Boarder
年  代 2012
产  地 美国
类  别 剧情 / 惊悚
语  言 英语
上映日期 2012-07-25(美国)
IMDb评分  5.4/10 from 195 users
IMDb链接  https://www.imdb.com/title/tt1879066
豆瓣评分 0/10 from 0 users
豆瓣链接 https://movie.douban.com/subject/26794601/
片  长 100分钟
导  演 Jolene Adams
编  剧 Jolene Adams / Jane Elizabeth Ryan
主  演 Andy Scott Harris
       Leslie Stevens
       Carlton Wilborn
       Patrick Nicolas
       McKenzie Clayton
       迪·沃伦斯 Dee Wallace
       Eric St. John
       Gerald Castillo
       Ray Chang
       Hallie Cowles
       Josh Dizon
       Briana Ferrari
       Phyllis Haverkamp
       Zac Heath
       Humphrey
       金·肯德尔 Kim Kendall
       Patricia Raven


简  介  

  安妮卡辭去在都会的教職工作,陪著身為牧師且充滿理想的师长移居鄉下,還有兩個可愛貼心的兒女相伴,擁有使人稱羨的恬淡生活;师长卻在此時說服她一同收養了一個無家可歸的11歲男孩卡爾,家裡開始出現各種「意外」,像是愛狗離奇灭亡、或是安妮卡無故被反鎖在地下室,加上卡爾的情緒陰晴不定,讓安妮卡越发不安…她將從這個男孩的過去挖掘出什麼樣的奥秘?又能不能成功用愛陪他走過人生中最徬徨無助的這一段路呢?
  1. Video
  2. ID                                       : 1
  3. Format                                   : AVC
  4. Format/Info                              : Advanced Video Codec
  5. Format profile                           : [email protected]
  6. Format settings                          : CABAC / 4 Ref Frames
  7. Format settings, CABAC                   : Yes
  8. Format settings, Reference frames        : 4 frames
  9. Codec ID                                 : V_MPEG4/ISO/AVC
  10. Duration                                 : 1 h 39 min
  11. Bit rate mode                            : Constant
  12. Bit rate                                 : 8 535 kb/s
  13. Nominal bit rate                         : 10 000 kb/s
  14. Width                                    : 1 920 pixels
  15. Height                                   : 1 040 pixels
  16. Display aspect ratio                     : 1.85:1
  17. Frame rate mode                          : Constant
  18. Frame rate                               : 24.000 FPS
  19. Color space                              : YUV
  20. Chroma subsampling                       : 4:2:0
  21. Bit depth                                : 8 bits
  22. Scan type                                : Progressive
  23. Bits/(Pixel*Frame)                       : 0.178
  24. Stream size                              : 5.90 GiB (97%)
  25. Default                                  : Yes
  26. Forced                                   : No
  27. Color range                              : Limited
  28. Color primaries                          : BT.709
  29. Transfer characteristics                 : BT.709
  30. Matrix coefficients                      : BT.709

  31. Audio
  32. ID                                       : 2
  33. Format                                   : E-AC-3
  34. Format/Info                              : Enhanced AC-3
  35. Commercial name                          : Dolby Digital Plus
  36. Codec ID                                 : A_EAC3
  37. Duration                                 : 1 h 39 min
  38. Bit rate mode                            : Constant
  39. Bit rate                                 : 224 kb/s
  40. Channel(s)                               : 2 channels
  41. Channel layout                           : L R
  42. Sampling rate                            : 48.0 kHz
  43. Frame rate                               : 31.250 FPS (1536 SPF)
  44. Compression mode                         : Lossy
  45. Stream size                              : 159 MiB (3%)
  46. Language                                 : English
  47. Service kind                             : Complete Main
  48. Default                                  : Yes
  49. Forced                                   : No

  50. Text
  51. ID                                       : 3
  52. Format                                   : UTF-8
  53. Codec ID                                 : S_TEXT/UTF8
  54. Codec ID/Info                            : UTF-8 Plain Text
  55. Duration                                 : 1 h 34 min
  56. Bit rate                                 : 49 b/s
  57. Count of elements                        : 1255
  58. Stream size                              : 34.4 KiB (0%)
  59. Title                                    : SDH
  60. Language                                 : English
  61. Default                                  : No
  62. Forced                                   : No
复制代码

寄宿男孩 The.Boarder.2012.1080p.AMZN.WEBRip.DDP2.0.x264-TEPES 6.06GB-2.png 寄宿男孩 The.Boarder.2012.1080p.AMZN.WEBRip.DDP2.0.x264-TEPES 6.06GB-3.png 寄宿男孩 The.Boarder.2012.1080p.AMZN.WEBRip.DDP2.0.x264-TEPES 6.06GB-4.png







回复

使用道具 举报

懒得打字嘛,点击右侧快捷回复 【右侧内容,后台自定义】
您需要登录后才可以回帖 登录 | 立即加入

本版积分规则

Archiver|小黑屋| 蓝光电影网 |网站地图

Copyright © 2021 Comsenz Inc. Powered by 蓝光电影网

蓝光电影网

本站内容由用户自主分享和转载自互联网,转载目的在于传递更多信息,并不代表本网赞同其观点和对其真实性负责。

如有侵权、违反国家法律政策行为,请联系我们,我们会第一时间及时清除和处理!

举报反馈邮箱:[email protected]

快速回复 返回顶部 返回列表