找回密码

蓝光电影网

查看: 339|回复: 8

[喜剧] 舞蹈高手 The.Dancing.Masters.1943.1080p.BluRay.x264-SAiMORNY 6.56GB

[复制链接]
蓝光币
515
发表于 2020-4-24 00:20:07 | 显示全部楼层 |阅读模式
舞蹈高手 The.Dancing.Masters.1943.1080p.BluRay.x264-SAiMORNY 6.56GB-1.png

译  名 舞蹈高手
片  名 The Dancing Masters
年  代 1943
产  地 美国
类  别 笑剧 / 恋爱
语  言 英语
上映日期 1943-11-19
IMDb评分  6.4/10 from 792 users
IMDb链接  https://www.imdb.com/title/tt0035777
豆瓣评分 0/10 from 0 users
豆瓣链接 https://movie.douban.com/subject/5069310/
片  长 63 分钟
导  演 马尔科姆·圣克莱尔 Malcolm St. Clair
编  剧 斯科特·达林 Scott Darling
主  演 斯坦·劳莱(Stan Laurel)
       奥列佛·哈台(Oliver Hardy)


标  签 美国 | 美國電影 | 歌舞 | 劳莱与哈台 | 1950 | 1943 | 1940s

简  介  

  劳莱与哈台合股经营了一家舞蹈课堂,而且亲身担任芭蕾教员,学员傍边和他们豪情特別好的富家女楚蒂,因与贫困男友的恋爱不被家人允許而深深忧心,因而劳莱與哈台自告奮勇要帮助楚蒂,不意兩人愈帮愈忙,反而把楚蒂一家人搞得一塌糊涂;而舞蹈课堂更因兩人愚蠢的理財面临破产危机,心血来潮的哈台这时有了新想法,预备陷劳莱于不义,诈领保险金,但衰运却又行将让他们自作自受。
  1. Video
  2. ID                                       : 1
  3. Format                                   : AVC
  4. Format/Info                              : Advanced Video Codec
  5. Format profile                           : [email protected]
  6. Format settings                          : CABAC / 4 Ref Frames
  7. Format settings, CABAC                   : Yes
  8. Format settings, Reference frames        : 4 frames
  9. Muxing mode                              : Header stripping
  10. Codec ID                                 : V_MPEG4/ISO/AVC
  11. Duration                                 : 1 h 3 min
  12. Bit rate                                 : 13.3 Mb/s
  13. Width                                    : 1 440 pixels
  14. Height                                   : 1 080 pixels
  15. Display aspect ratio                     : 4:3
  16. Frame rate mode                          : Constant
  17. Frame rate                               : 23.976 FPS
  18. Color space                              : YUV
  19. Chroma subsampling                       : 4:2:0
  20. Bit depth                                : 8 bits
  21. Scan type                                : Progressive
  22. Bits/(Pixel*Frame)                       : 0.356
  23. Stream size                              : 5.76 GiB (88%)
  24. Writing library                          : x264 core 113 r1882 f6d0c95
  25. Encoding settings                        : cabac=1 / ref=4 / deblock=1:0:0 / analyse=0x3:0x133 / me=umh / subme=7 / psy=1 / psy_rd=1.00:0.00 / mixed_ref=1 / me_range=16 / chroma_me=1 / trellis=1 / 8x8dct=1 / cqm=0 / deadzone=21,11 / fast_pskip=0 / chroma_qp_offset=-2 / threads=12 / sliced_threads=0 / nr=0 / decimate=1 / interlaced=0 / constrained_intra=0 / bframes=3 / b_pyramid=2 / b_adapt=1 / b_bias=0 / direct=1 / weightb=1 / open_gop=0 / weightp=2 / keyint=250 / keyint_min=23 / scenecut=40 / intra_refresh=0 / rc=2pass / mbtree=0 / bitrate=13256 / ratetol=1.0 / qcomp=0.60 / qpmin=0 / qpmax=69 / qpstep=4 / cplxblur=20.0 / qblur=0.5 / ip_ratio=1.40 / pb_ratio=1.30 / aq=1:1.00
  26. Language                                 : English
  27. Default                                  : Yes
  28. Forced                                   : No

  29. Audio
  30. ID                                       : 2
  31. Format                                   : DTS
  32. Format/Info                              : Digital Theater Systems
  33. Muxing mode                              : Header stripping
  34. Codec ID                                 : A_DTS
  35. Duration                                 : 1 h 3 min
  36. Bit rate mode                            : Constant
  37. Bit rate                                 : 1 509 kb/s
  38. Channel(s)                               : 2 channels
  39. Channel layout                           : L R
  40. Sampling rate                            : 48.0 kHz
  41. Frame rate                               : 93.750 FPS (512 SPF)
  42. Bit depth                                : 24 bits
  43. Compression mode                         : Lossy
  44. Stream size                              : 687 MiB (10%)
  45. Language                                 : English
  46. Default                                  : Yes
  47. Forced                                   : No
复制代码

舞蹈高手 The.Dancing.Masters.1943.1080p.BluRay.x264-SAiMORNY 6.56GB-2.png 舞蹈高手 The.Dancing.Masters.1943.1080p.BluRay.x264-SAiMORNY 6.56GB-3.png 舞蹈高手 The.Dancing.Masters.1943.1080p.BluRay.x264-SAiMORNY 6.56GB-4.png






回复

使用道具 举报

蓝光币
1476
发表于 2020-4-24 07:50:56 | 显示全部楼层
太好啦&萬分感謝版主的無私發佈分享%
回复 支持 反对

使用道具 举报

蓝光币
380
发表于 2020-4-25 11:12:18 | 显示全部楼层

感谢楼主的无私分享!要想蓝光电影网好 就靠你我他
回复 支持 反对

使用道具 举报

懒得打字嘛,点击右侧快捷回复 【右侧内容,后台自定义】
您需要登录后才可以回帖 登录 | 立即加入

本版积分规则

Archiver|小黑屋| 蓝光电影网 |网站地图

Copyright © 2021 Comsenz Inc. Powered by 蓝光电影网

蓝光电影网

本站内容由用户自主分享和转载自互联网,转载目的在于传递更多信息,并不代表本网赞同其观点和对其真实性负责。

如有侵权、违反国家法律政策行为,请联系我们,我们会第一时间及时清除和处理!

举报反馈邮箱:[email protected]

快速回复 返回顶部 返回列表