找回密码

蓝光电影网

查看: 302|回复: 1

[剧情] 我们就是我们 We.Are.What.We.Are.2010.SPANISH.ENSUBBED.1080p.BluRay.x264-METH 6.56GB

[复制链接]
蓝光币
519
发表于 2020-4-24 12:13:08 | 显示全部楼层 |阅读模式
我们就是我们 We.Are.What.We.Are.2010.SPANISH.ENSUBBED.1080p.BluRay.x264-METH 6.56GB-1.png

译  名 我们就是我们 / We Are What We Are / 恶夜食人族
片  名 Somos lo que hay
年  代 2010
产  地 墨西哥
类  别 剧情 / 可骇
语  言 西班牙语
上映日期 2010-12-03(墨西哥)
IMDb评分  5.7/10 from 4421 users
IMDb链接  https://www.imdb.com/title/tt1620604
豆瓣评分 5.1/10 from 287 users
豆瓣链接 https://movie.douban.com/subject/4811766/
片  长 90 分钟
导  演 豪尔赫·格劳 Jorge Grau
编  剧 Jorge Michel Grau
主  演 鲍琳娜·盖坦 Paulina Gaitan
       丹尼尔·吉梅内斯·卡乔 Daniel Giménez Cacho
       阿兰·夏维兹 Alan Chávez
       Francisco Barreiro
       Adrián Aguirre
       Miriam Balderas
       Carmen Beato
       Juan Carlos Colombo
       Jorge Zárate


标  签 墨西哥 | 可骇 | 惊悚 | 犯罪 | 墨西哥电影 | 2010 | 电影 | JorgeMichelGrau

简  介  

  身为食人族的后裔,必须沿袭食人传统,停止惨无人道的血腥仪式,但率领家人猎食的爸爸忽然归天,留下三个孩子一个妈,这场狩猎将若何继续?谁将成为人肉猎捕的工具?庞大的饥饿感在体内转化成邪恶愿望,一旦爆发,结果将没法设想。最饿,成为罪行。应战食品链忌讳最底线,下一顿,谁将会是‘同桌’同享餐点的贵宾?
  1. Video
  2. ID                                       : 1
  3. Format                                   : AVC
  4. Format/Info                              : Advanced Video Codec
  5. Format profile                           : [email protected]
  6. Format settings                          : CABAC / 5 Ref Frames
  7. Format settings, CABAC                   : Yes
  8. Format settings, Reference frames        : 5 frames
  9. Codec ID                                 : V_MPEG4/ISO/AVC
  10. Duration                                 : 1 h 28 min
  11. Bit rate                                 : 9 039 kb/s
  12. Width                                    : 1 920 pixels
  13. Height                                   : 800 pixels
  14. Display aspect ratio                     : 2.40:1
  15. Frame rate mode                          : Constant
  16. Frame rate                               : 24.000 FPS
  17. Color space                              : YUV
  18. Chroma subsampling                       : 4:2:0
  19. Bit depth                                : 8 bits
  20. Scan type                                : Progressive
  21. Bits/(Pixel*Frame)                       : 0.245
  22. Stream size                              : 5.49 GiB (84%)
  23. Writing library                          : x264 core 115 r1937 aa21558
  24. Encoding settings                        : cabac=1 / ref=5 / deblock=1:0:0 / analyse=0x3:0x133 / me=umh / subme=7 / psy=1 / psy_rd=1.00:0.00 / mixed_ref=1 / me_range=16 / chroma_me=1 / trellis=1 / 8x8dct=1 / cqm=0 / deadzone=21,11 / fast_pskip=0 / chroma_qp_offset=-2 / threads=12 / sliced_threads=0 / nr=0 / decimate=1 / interlaced=0 / bluray_compat=0 / constrained_intra=0 / bframes=3 / b_pyramid=2 / b_adapt=1 / b_bias=0 / direct=1 / weightb=1 / open_gop=0 / weightp=2 / keyint=250 / keyint_min=24 / scenecut=40 / intra_refresh=0 / rc_lookahead=40 / rc=2pass / mbtree=1 / bitrate=9039 / ratetol=1.0 / qcomp=0.60 / qpmin=0 / qpmax=69 / qpstep=4 / cplxblur=20.0 / qblur=0.5 / ip_ratio=1.40 / aq=1:1.00
  25. Language                                 : English
  26. Default                                  : Yes
  27. Forced                                   : No

  28. Audio
  29. ID                                       : 2
  30. Format                                   : DTS
  31. Format/Info                              : Digital Theater Systems
  32. Codec ID                                 : A_DTS
  33. Duration                                 : 1 h 28 min
  34. Bit rate mode                            : Constant
  35. Bit rate                                 : 1 509 kb/s
  36. Channel(s)                               : 6 channels
  37. Channel layout                           : C L R Ls Rs LFE
  38. Sampling rate                            : 48.0 kHz
  39. Frame rate                               : 93.750 FPS (512 SPF)
  40. Bit depth                                : 24 bits
  41. Compression mode                         : Lossy
  42. Stream size                              : 960 MiB (14%)
  43. Language                                 : Spanish
  44. Default                                  : Yes
  45. Forced                                   : No
复制代码

我们就是我们 We.Are.What.We.Are.2010.SPANISH.ENSUBBED.1080p.BluRay.x264-METH 6.56GB-2.png 我们就是我们 We.Are.What.We.Are.2010.SPANISH.ENSUBBED.1080p.BluRay.x264-METH 6.56GB-3.png 我们就是我们 We.Are.What.We.Are.2010.SPANISH.ENSUBBED.1080p.BluRay.x264-METH 6.56GB-4.png






回复

使用道具 举报

懒得打字嘛,点击右侧快捷回复 【右侧内容,后台自定义】
您需要登录后才可以回帖 登录 | 立即加入

本版积分规则

Archiver|小黑屋| 蓝光电影网 |网站地图

Copyright © 2021 Comsenz Inc. Powered by 蓝光电影网

蓝光电影网

本站内容由用户自主分享和转载自互联网,转载目的在于传递更多信息,并不代表本网赞同其观点和对其真实性负责。

如有侵权、违反国家法律政策行为,请联系我们,我们会第一时间及时清除和处理!

举报反馈邮箱:[email protected]

快速回复 返回顶部 返回列表