找回密码

蓝光电影网

查看: 266|回复: 2

[剧情] 徵婚啟事 The.Personals.1998.1080p.BluRay.x264-MELiTE 6.56GB

[复制链接]
蓝光币
515
发表于 2020-4-24 12:13:59 | 显示全部楼层 |阅读模式
徵婚啟事 The.Personals.1998.1080p.BluRay.x264-MELiTE 6.56GB-1.png

译  名 征婚启事 / The Personals
片  名 徵婚啟事
年  代 1998
产  地 中国台湾
类  别 剧情 / 笑剧 / 恋爱
语  言 汉语普通话
上映日期 1998-03-13(中国台湾)
IMDb评分  7.1/10 from 519 users
IMDb链接  https://www.imdb.com/title/tt0212423
豆瓣评分 7.8/10 from 16936 users
豆瓣链接 https://movie.douban.com/subject/1307514/
片  长 104分钟
导  演 陈国富 Kuo-fu Chen
编  剧 陈国富 Kuo-fu Chen / 陈世杰 Shih-chieh Chen
主  演 刘若英 René Liu
       王朝明 Chao-ming Wang
       伍佰 Wu Bai
       陈昭荣 Aaron Chen
       顾宝明 Pao-Ming Ku
       金士杰 Shih-Chieh King


标  签 刘若英 | 台湾 | 台湾电影 | 恋爱 | 陈国富 | 1998 | 征婚启事 | 陳國富

简  介  

  男友的多日失落打破了台北某所大医院的眼科医生杜家珍(刘若英)以往的安静生活,为走出心情的低谷,她血汗来潮在报纸的分类广告栏刊登了一则征婚启事,期望经过另一段新的爱情抚慰自己。启事一出,招来众多远远超越杜家珍的过往生活经历所能设想的奇形怪状各怀目标的应征者(王朝明、纽承泽等),但在同他们逐一面谈以后,杜家珍发现这些人要的只是各类百般的“欲”,而自己面临他们时的喟叹,更多是对过往情伤的不宁愿。
  当杜家珍决议为已经的恋爱做最初一次拯救的尽力时,却获得对她来说非常意外或是最初一丝希望幻灭或是摆脱的消息。

获奖情况  

  第35届台北金马影展(1998)
  金马奖 最好剧情片(提名)
  金马奖 最好导演(提名) 陈国富
  金马奖 最好女配角(提名) 刘若英
  金马奖 最好男配角(提名) 王朝明
  金马奖 最好改编剧本(提名) 陈国富 / 陈世杰
  金马奖 最好剪辑(提名) 张达隆
  出格评审团奖 刘若英
  1. Video
  2. ID                                       : 1
  3. Format                                   : AVC
  4. Format/Info                              : Advanced Video Codec
  5. Format profile                           : [email protected]
  6. Format settings                          : CABAC / 4 Ref Frames
  7. Format settings, CABAC                   : Yes
  8. Format settings, Reference frames        : 4 frames
  9. Muxing mode                              : Header stripping
  10. Codec ID                                 : V_MPEG4/ISO/AVC
  11. Duration                                 : 1 h 45 min
  12. Bit rate                                 : 8 252 kb/s
  13. Width                                    : 1 920 pixels
  14. Height                                   : 1 080 pixels
  15. Display aspect ratio                     : 16:9
  16. Frame rate mode                          : Constant
  17. Frame rate                               : 24.000 FPS
  18. Color space                              : YUV
  19. Chroma subsampling                       : 4:2:0
  20. Bit depth                                : 8 bits
  21. Scan type                                : Progressive
  22. Bits/(Pixel*Frame)                       : 0.166
  23. Stream size                              : 5.96 GiB (91%)
  24. Writing library                          : x264 core 115 r1936 7a9e08d
  25. Encoding settings                        : cabac=1 / ref=4 / deblock=1:0:0 / analyse=0x3:0x113 / me=umh / subme=7 / psy=1 / psy_rd=1.00:0.00 / mixed_ref=1 / me_range=16 / chroma_me=1 / trellis=1 / 8x8dct=1 / cqm=0 / deadzone=21,11 / fast_pskip=0 / chroma_qp_offset=-2 / threads=12 / sliced_threads=0 / nr=0 / decimate=1 / interlaced=0 / bluray_compat=0 / constrained_intra=0 / bframes=3 / b_pyramid=2 / b_adapt=1 / b_bias=0 / direct=1 / weightb=1 / open_gop=0 / weightp=2 / keyint=250 / keyint_min=23 / scenecut=40 / intra_refresh=0 / rc_lookahead=40 / rc=2pass / mbtree=1 / bitrate=8252 / ratetol=1.0 / qcomp=0.60 / qpmin=0 / qpmax=69 / qpstep=4 / cplxblur=20.0 / qblur=0.5 / ip_ratio=1.40 / aq=1:1.00
  26. Language                                 : English
  27. Default                                  : Yes
  28. Forced                                   : No

  29. Audio
  30. ID                                       : 2
  31. Format                                   : AC-3
  32. Format/Info                              : Audio Coding 3
  33. Commercial name                          : Dolby Digital
  34. Muxing mode                              : Header stripping
  35. Codec ID                                 : A_AC3
  36. Duration                                 : 1 h 45 min
  37. Bit rate mode                            : Constant
  38. Bit rate                                 : 640 kb/s
  39. Channel(s)                               : 2 channels
  40. Channel layout                           : L R
  41. Sampling rate                            : 48.0 kHz
  42. Frame rate                               : 31.250 FPS (1536 SPF)
  43. Bit depth                                : 16 bits
  44. Compression mode                         : Lossy
  45. Stream size                              : 484 MiB (7%)
  46. Language                                 : Chinese
  47. Service kind                             : Complete Main
  48. Default                                  : Yes
  49. Forced                                   : No

  50. Text
  51. ID                                       : 3
  52. Format                                   : UTF-8
  53. Codec ID                                 : S_TEXT/UTF8
  54. Codec ID/Info                            : UTF-8 Plain Text
  55. Language                                 : English
  56. Default                                  : Yes
  57. Forced                                   : No
复制代码

徵婚啟事 The.Personals.1998.1080p.BluRay.x264-MELiTE 6.56GB-2.png 徵婚啟事 The.Personals.1998.1080p.BluRay.x264-MELiTE 6.56GB-3.png 徵婚啟事 The.Personals.1998.1080p.BluRay.x264-MELiTE 6.56GB-4.png






回复

使用道具 举报

蓝光币
380
发表于 2020-4-25 09:09:31 | 显示全部楼层

楼主太厉害了!楼主,电影应该很好看我觉得蓝光电影网真是个好地方!
回复 支持 反对

使用道具 举报

懒得打字嘛,点击右侧快捷回复 【右侧内容,后台自定义】
您需要登录后才可以回帖 登录 | 立即加入

本版积分规则

Archiver|小黑屋| 蓝光电影网 |网站地图

Copyright © 2021 Comsenz Inc. Powered by 蓝光电影网

蓝光电影网

本站内容由用户自主分享和转载自互联网,转载目的在于传递更多信息,并不代表本网赞同其观点和对其真实性负责。

如有侵权、违反国家法律政策行为,请联系我们,我们会第一时间及时清除和处理!

举报反馈邮箱:[email protected]

快速回复 返回顶部 返回列表