找回密码

蓝光电影网

查看: 361|回复: 2

[悬疑] 狩猎的时间 Time.to.Hunt.2020.KOREAN.1080p.NF.WEBRip.DDP5.1.Atmos.x264-CM 6.66GB

[复制链接]
蓝光币
515
发表于 2020-4-24 12:22:13 | 显示全部楼层 |阅读模式
狩猎的时候 Time.to.Hunt.2020.KOREAN.1080p.NF.WEBRip.DDP5.1.Atmos.x264-CM 6.66GB-1.png

译  名 狩猎的时候 / Hunting Time / Sanyangeui sigan / The Night of the Hunter / Time to Hunt
片  名 ??? ??
年  代 2020
产  地 韩国
类  别 悬疑 / 惊悚 / 犯罪
语  言 韩语
上映日期 2020-02-22(柏林电影节) / 2020-04-23(韩国)
IMDb评分  6.4/10 from 97 users
IMDb链接  https://www.imdb.com/title/tt11777040
豆瓣评分 6.1/10 from 253 users
豆瓣链接 https://movie.douban.com/subject/27621498/
片  长 134分钟
导  演 尹成贤 Sung-Hyun Yoon
编  剧 尹成贤 Sung-Hyun Yoon
主  演 李帝勋 Je-hoon Lee
       何在洪 Jae-hong Ahn
       崔宇植 Woo-Sik Choi
       朴海秀 Hae-soo Park
       朴正民 Jeong-min Park
       裴济基 Bae Je-gi


标  签 韩国 | 韩国电影 | 崔宇植 | 李帝勋 | 悬疑 | 2020 | 悬疑/黑色 | 电影

简  介  

  《守望者》导演新作,报告在未几的未来韩半岛再次遭到经济冲击,进而出现庞大的穷户街。为了生活下去,在这条街上的年轻人不惜知法犯法的故事。
  1. Video
  2. ID                                       : 1
  3. Format                                   : AVC
  4. Format/Info                              : Advanced Video Codec
  5. Format profile                           : [email protected]
  6. Format settings                          : CABAC / 4 Ref Frames
  7. Format settings, CABAC                   : Yes
  8. Format settings, Reference frames        : 4 frames
  9. Codec ID                                 : V_MPEG4/ISO/AVC
  10. Duration                                 : 2 h 14 min
  11. Bit rate mode                            : Variable
  12. Bit rate                                 : 6 297 kb/s
  13. Maximum bit rate                         : 20.0 Mb/s
  14. Width                                    : 1 920 pixels
  15. Height                                   : 1 080 pixels
  16. Display aspect ratio                     : 16:9
  17. Frame rate mode                          : Constant
  18. Frame rate                               : 24.000 FPS
  19. Color space                              : YUV
  20. Chroma subsampling                       : 4:2:0
  21. Bit depth                                : 8 bits
  22. Scan type                                : Progressive
  23. Bits/(Pixel*Frame)                       : 0.127
  24. Stream size                              : 5.93 GiB (89%)
  25. Writing library                          : x264 core 148 r2717 0d2410d
  26. Encoding settings                        : cabac=1 / ref=4 / deblock=1:0:0 / analyse=0x3:0x111 / me=umh / subme=10 / psy=1 / psy_rd=1.00:0.00 / mixed_ref=1 / me_range=120 / chroma_me=1 / trellis=2 / 8x8dct=1 / cqm=0 / deadzone=21,11 / fast_pskip=1 / chroma_qp_offset=-2 / threads=6 / lookahead_threads=1 / sliced_threads=0 / nr=0 / decimate=1 / interlaced=0 / bluray_compat=0 / stitchable=1 / constrained_intra=0 / bframes=16 / b_pyramid=2 / b_adapt=2 / b_bias=0 / direct=3 / weightb=1 / open_gop=0 / weightp=2 / keyint=240 / keyint_min=121 / scenecut=0 / intra_refresh=0 / rc_lookahead=240 / rc=crf / mbtree=1 / crf=16.0 / qcomp=0.50 / qpmin=6 / qpmax=51 / qpstep=4 / vbv_maxrate=20000 / vbv_bufsize=25000 / crf_max=0.0 / nal_hrd=vbr / filler=0 / ip_ratio=1.40 / aq=1:0.80
  27. Default                                  : Yes
  28. Forced                                   : No

  29. Audio
  30. ID                                       : 2
  31. Format                                   : E-AC-3 JOC
  32. Format/Info                              : Enhanced AC-3 with Joint Object Coding
  33. Commercial name                          : Dolby Digital Plus with Dolby Atmos
  34. Codec ID                                 : A_EAC3
  35. Duration                                 : 2 h 14 min
  36. Bit rate mode                            : Constant
  37. Bit rate                                 : 768 kb/s
  38. Channel(s)                               : 6 channels
  39. Channel layout                           : L R C LFE Ls Rs
  40. Sampling rate                            : 48.0 kHz
  41. Frame rate                               : 31.250 FPS (1536 SPF)
  42. Compression mode                         : Lossy
  43. Stream size                              : 740 MiB (11%)
  44. Title                                    : Korean
  45. Language                                 : Korean
  46. Service kind                             : Complete Main
  47. Default                                  : No
  48. Forced                                   : No
  49. Complexity index                         : 16
  50. Number of dynamic objects                : 15
  51. Bed channel count                        : 1 channel
  52. Bed channel configuration                : LFE

  53. Text #1
  54. ID                                       : 3
  55. Format                                   : UTF-8
  56. Codec ID                                 : S_TEXT/UTF8
  57. Codec ID/Info                            : UTF-8 Plain Text
  58. Duration                                 : 2 h 13 min
  59. Bit rate                                 : 32 b/s
  60. Count of elements                        : 1174
  61. Stream size                              : 31.5 KiB (0%)
  62. Title                                    : English
  63. Language                                 : English
  64. Default                                  : No
  65. Forced                                   : No

  66. Text #2
  67. ID                                       : 4
  68. Format                                   : UTF-8
  69. Codec ID                                 : S_TEXT/UTF8
  70. Codec ID/Info                            : UTF-8 Plain Text
  71. Duration                                 : 2 h 13 min
  72. Bit rate                                 : 54 b/s
  73. Count of elements                        : 1169
  74. Stream size                              : 53.8 KiB (0%)
  75. Title                                    : Arabic
  76. Language                                 : Arabic
  77. Default                                  : No
  78. Forced                                   : No

  79. Text #3
  80. ID                                       : 5
  81. Format                                   : UTF-8
  82. Codec ID                                 : S_TEXT/UTF8
  83. Codec ID/Info                            : UTF-8 Plain Text
  84. Duration                                 : 2 h 13 min
  85. Bit rate                                 : 36 b/s
  86. Count of elements                        : 1226
  87. Stream size                              : 35.9 KiB (0%)
  88. Title                                    : Chinese Simplified
  89. Language                                 : Chinese
  90. Default                                  : No
  91. Forced                                   : No

  92. Text #4
  93. ID                                       : 6
  94. Format                                   : UTF-8
  95. Codec ID                                 : S_TEXT/UTF8
  96. Codec ID/Info                            : UTF-8 Plain Text
  97. Duration                                 : 2 h 13 min
  98. Bit rate                                 : 37 b/s
  99. Count of elements                        : 1233
  100. Stream size                              : 36.5 KiB (0%)
  101. Title                                    : Chinese Traditional
  102. Language                                 : Chinese
  103. Default                                  : No
  104. Forced                                   : No

  105. Text #5
  106. ID                                       : 7
  107. Format                                   : UTF-8
  108. Codec ID                                 : S_TEXT/UTF8
  109. Codec ID/Info                            : UTF-8 Plain Text
  110. Duration                                 : 2 h 13 min
  111. Bit rate                                 : 30 b/s
  112. Count of elements                        : 1176
  113. Stream size                              : 29.5 KiB (0%)
  114. Title                                    : Czech
  115. Language                                 : Czech
  116. Default                                  : No
  117. Forced                                   : No

  118. Text #6
  119. ID                                       : 8
  120. Format                                   : UTF-8
  121. Codec ID                                 : S_TEXT/UTF8
  122. Codec ID/Info                            : UTF-8 Plain Text
  123. Duration                                 : 2 h 13 min
  124. Bit rate                                 : 32 b/s
  125. Count of elements                        : 1172
  126. Stream size                              : 31.9 KiB (0%)
  127. Title                                    : Danish
  128. Language                                 : Danish
  129. Default                                  : No
  130. Forced                                   : No

  131. Text #7
  132. ID                                       : 9
  133. Format                                   : UTF-8
  134. Codec ID                                 : S_TEXT/UTF8
  135. Codec ID/Info                            : UTF-8 Plain Text
  136. Duration                                 : 2 h 13 min
  137. Bit rate                                 : 29 b/s
  138. Count of elements                        : 1114
  139. Stream size                              : 29.3 KiB (0%)
  140. Title                                    : Dutch
  141. Language                                 : Dutch
  142. Default                                  : No
  143. Forced                                   : No

  144. Text #8
  145. ID                                       : 10
  146. Format                                   : UTF-8
  147. Codec ID                                 : S_TEXT/UTF8
  148. Codec ID/Info                            : UTF-8 Plain Text
  149. Duration                                 : 2 h 13 min
  150. Bit rate                                 : 32 b/s
  151. Count of elements                        : 1174
  152. Stream size                              : 32.0 KiB (0%)
  153. Title                                    : Finnish
  154. Language                                 : Finnish
  155. Default                                  : No
  156. Forced                                   : No

  157. Text #9
  158. ID                                       : 11
  159. Format                                   : UTF-8
  160. Codec ID                                 : S_TEXT/UTF8
  161. Codec ID/Info                            : UTF-8 Plain Text
  162. Duration                                 : 2 h 13 min
  163. Bit rate                                 : 33 b/s
  164. Count of elements                        : 1171
  165. Stream size                              : 32.9 KiB (0%)
  166. Title                                    : French
  167. Language                                 : French
  168. Default                                  : No
  169. Forced                                   : No

  170. Text #10
  171. ID                                       : 12
  172. Format                                   : UTF-8
  173. Codec ID                                 : S_TEXT/UTF8
  174. Codec ID/Info                            : UTF-8 Plain Text
  175. Duration                                 : 2 h 13 min
  176. Bit rate                                 : 34 b/s
  177. Count of elements                        : 1145
  178. Stream size                              : 33.9 KiB (0%)
  179. Title                                    : German
  180. Language                                 : German
  181. Default                                  : No
  182. Forced                                   : No

  183. Text #11
  184. ID                                       : 13
  185. Format                                   : UTF-8
  186. Codec ID                                 : S_TEXT/UTF8
  187. Codec ID/Info                            : UTF-8 Plain Text
  188. Duration                                 : 2 h 13 min
  189. Bit rate                                 : 52 b/s
  190. Count of elements                        : 1173
  191. Stream size                              : 51.3 KiB (0%)
  192. Title                                    : Greek
  193. Language                                 : Greek
  194. Default                                  : No
  195. Forced                                   : No

  196. Text #12
  197. ID                                       : 14
  198. Format                                   : UTF-8
  199. Codec ID                                 : S_TEXT/UTF8
  200. Codec ID/Info                            : UTF-8 Plain Text
  201. Duration                                 : 2 h 13 min
  202. Bit rate                                 : 45 b/s
  203. Count of elements                        : 1175
  204. Stream size                              : 44.8 KiB (0%)
  205. Title                                    : Hebrew
  206. Language                                 : Hebrew
  207. Default                                  : No
  208. Forced                                   : No

  209. Text #13
  210. ID                                       : 15
  211. Format                                   : UTF-8
  212. Codec ID                                 : S_TEXT/UTF8
  213. Codec ID/Info                            : UTF-8 Plain Text
  214. Duration                                 : 2 h 13 min
  215. Bit rate                                 : 30 b/s
  216. Count of elements                        : 1176
  217. Stream size                              : 30.1 KiB (0%)
  218. Title                                    : Hungarian
  219. Language                                 : Hungarian
  220. Default                                  : No
  221. Forced                                   : No

  222. Text #14
  223. ID                                       : 16
  224. Format                                   : UTF-8
  225. Codec ID                                 : S_TEXT/UTF8
  226. Codec ID/Info                            : UTF-8 Plain Text
  227. Duration                                 : 2 h 13 min
  228. Bit rate                                 : 30 b/s
  229. Count of elements                        : 1173
  230. Stream size                              : 30.1 KiB (0%)
  231. Title                                    : Indonesian
  232. Language                                 : Indonesian
  233. Default                                  : No
  234. Forced                                   : No

  235. Text #15
  236. ID                                       : 17
  237. Format                                   : UTF-8
  238. Codec ID                                 : S_TEXT/UTF8
  239. Codec ID/Info                            : UTF-8 Plain Text
  240. Duration                                 : 2 h 13 min
  241. Bit rate                                 : 31 b/s
  242. Count of elements                        : 1175
  243. Stream size                              : 31.2 KiB (0%)
  244. Title                                    : Italian
  245. Language                                 : Italian
  246. Default                                  : No
  247. Forced                                   : No

  248. Text #16
  249. ID                                       : 18
  250. Format                                   : UTF-8
  251. Codec ID                                 : S_TEXT/UTF8
  252. Codec ID/Info                            : UTF-8 Plain Text
  253. Duration                                 : 2 h 13 min
  254. Bit rate                                 : 34 b/s
  255. Count of elements                        : 1193
  256. Stream size                              : 33.3 KiB (0%)
  257. Title                                    : Japanese
  258. Language                                 : Japanese
  259. Default                                  : No
  260. Forced                                   : No

  261. Text #17
  262. ID                                       : 19
  263. Format                                   : UTF-8
  264. Codec ID                                 : S_TEXT/UTF8
  265. Codec ID/Info                            : UTF-8 Plain Text
  266. Duration                                 : 2 h 11 min
  267. Bit rate                                 : 89 b/s
  268. Count of elements                        : 2140
  269. Stream size                              : 85.8 KiB (0%)
  270. Title                                    : Korean
  271. Language                                 : Korean
  272. Default                                  : No
  273. Forced                                   : No

  274. Text #18
  275. ID                                       : 20
  276. Format                                   : UTF-8
  277. Codec ID                                 : S_TEXT/UTF8
  278. Codec ID/Info                            : UTF-8 Plain Text
  279. Duration                                 : 1 h 26 min
  280. Bit rate                                 : 0 b/s
  281. Count of elements                        : 5
  282. Stream size                              : 96.0 Bytes (0%)
  283. Title                                    : Korean (FORCED)
  284. Language                                 : Korean
  285. Default                                  : No
  286. Forced                                   : Yes

  287. Text #19
  288. ID                                       : 21
  289. Format                                   : UTF-8
  290. Codec ID                                 : S_TEXT/UTF8
  291. Codec ID/Info                            : UTF-8 Plain Text
  292. Duration                                 : 2 h 13 min
  293. Bit rate                                 : 32 b/s
  294. Count of elements                        : 1174
  295. Stream size                              : 32.2 KiB (0%)
  296. Title                                    : Malay
  297. Language                                 : Malay
  298. Default                                  : No
  299. Forced                                   : No

  300. Text #20
  301. ID                                       : 22
  302. Format                                   : UTF-8
  303. Codec ID                                 : S_TEXT/UTF8
  304. Codec ID/Info                            : UTF-8 Plain Text
  305. Duration                                 : 2 h 13 min
  306. Bit rate                                 : 31 b/s
  307. Count of elements                        : 1175
  308. Stream size                              : 31.3 KiB (0%)
  309. Title                                    : Norwegian Bokmal
  310. Language                                 : Norwegian Bokmal
  311. Default                                  : No
  312. Forced                                   : No

  313. Text #21
  314. ID                                       : 23
  315. Format                                   : UTF-8
  316. Codec ID                                 : S_TEXT/UTF8
  317. Codec ID/Info                            : UTF-8 Plain Text
  318. Duration                                 : 2 h 13 min
  319. Bit rate                                 : 29 b/s
  320. Count of elements                        : 1141
  321. Stream size                              : 28.6 KiB (0%)
  322. Title                                    : Polish
  323. Language                                 : Polish
  324. Default                                  : No
  325. Forced                                   : No

  326. Text #22
  327. ID                                       : 24
  328. Format                                   : UTF-8
  329. Codec ID                                 : S_TEXT/UTF8
  330. Codec ID/Info                            : UTF-8 Plain Text
  331. Duration                                 : 2 h 13 min
  332. Bit rate                                 : 30 b/s
  333. Count of elements                        : 1176
  334. Stream size                              : 30.4 KiB (0%)
  335. Title                                    : Portuguese
  336. Language                                 : Portuguese
  337. Default                                  : No
  338. Forced                                   : No

  339. Text #23
  340. ID                                       : 25
  341. Format                                   : UTF-8
  342. Codec ID                                 : S_TEXT/UTF8
  343. Codec ID/Info                            : UTF-8 Plain Text
  344. Duration                                 : 2 h 13 min
  345. Bit rate                                 : 31 b/s
  346. Count of elements                        : 1154
  347. Stream size                              : 31.0 KiB (0%)
  348. Title                                    : Brazilian Portuguese
  349. Language                                 : Portuguese
  350. Default                                  : No
  351. Forced                                   : No

  352. Text #24
  353. ID                                       : 26
  354. Format                                   : UTF-8
  355. Codec ID                                 : S_TEXT/UTF8
  356. Codec ID/Info                            : UTF-8 Plain Text
  357. Duration                                 : 2 h 13 min
  358. Bit rate                                 : 36 b/s
  359. Count of elements                        : 1176
  360. Stream size                              : 35.7 KiB (0%)
  361. Title                                    : Romanian
  362. Language                                 : Romanian
  363. Default                                  : No
  364. Forced                                   : No

  365. Text #25
  366. ID                                       : 27
  367. Format                                   : UTF-8
  368. Codec ID                                 : S_TEXT/UTF8
  369. Codec ID/Info                            : UTF-8 Plain Text
  370. Duration                                 : 2 h 13 min
  371. Bit rate                                 : 47 b/s
  372. Count of elements                        : 1174
  373. Stream size                              : 46.3 KiB (0%)
  374. Title                                    : Russian
  375. Language                                 : Russian
  376. Default                                  : No
  377. Forced                                   : No

  378. Text #26
  379. ID                                       : 28
  380. Format                                   : UTF-8
  381. Codec ID                                 : S_TEXT/UTF8
  382. Codec ID/Info                            : UTF-8 Plain Text
  383. Duration                                 : 2 h 13 min
  384. Bit rate                                 : 32 b/s
  385. Count of elements                        : 1172
  386. Stream size                              : 31.7 KiB (0%)
  387. Title                                    : Spanish
  388. Language                                 : Spanish
  389. Default                                  : No
  390. Forced                                   : No

  391. Text #27
  392. ID                                       : 29
  393. Format                                   : UTF-8
  394. Codec ID                                 : S_TEXT/UTF8
  395. Codec ID/Info                            : UTF-8 Plain Text
  396. Duration                                 : 2 h 13 min
  397. Bit rate                                 : 31 b/s
  398. Count of elements                        : 1176
  399. Stream size                              : 31.0 KiB (0%)
  400. Title                                    : European Spanish
  401. Language                                 : Spanish
  402. Default                                  : No
  403. Forced                                   : No

  404. Text #28
  405. ID                                       : 30
  406. Format                                   : UTF-8
  407. Codec ID                                 : S_TEXT/UTF8
  408. Codec ID/Info                            : UTF-8 Plain Text
  409. Duration                                 : 2 h 13 min
  410. Bit rate                                 : 32 b/s
  411. Count of elements                        : 1175
  412. Stream size                              : 32.3 KiB (0%)
  413. Title                                    : Swedish
  414. Language                                 : Swedish
  415. Default                                  : No
  416. Forced                                   : No

  417. Text #29
  418. ID                                       : 31
  419. Format                                   : UTF-8
  420. Codec ID                                 : S_TEXT/UTF8
  421. Codec ID/Info                            : UTF-8 Plain Text
  422. Duration                                 : 2 h 13 min
  423. Bit rate                                 : 86 b/s
  424. Count of elements                        : 1174
  425. Stream size                              : 84.8 KiB (0%)
  426. Title                                    : Thai
  427. Language                                 : Thai
  428. Default                                  : No
  429. Forced                                   : No

  430. Text #30
  431. ID                                       : 32
  432. Format                                   : UTF-8
  433. Codec ID                                 : S_TEXT/UTF8
  434. Codec ID/Info                            : UTF-8 Plain Text
  435. Duration                                 : 2 h 13 min
  436. Bit rate                                 : 31 b/s
  437. Count of elements                        : 1175
  438. Stream size                              : 30.4 KiB (0%)
  439. Title                                    : Turkish
  440. Language                                 : Turkish
  441. Default                                  : No
  442. Forced                                   : No

  443. Text #31
  444. ID                                       : 33
  445. Format                                   : UTF-8
  446. Codec ID                                 : S_TEXT/UTF8
  447. Codec ID/Info                            : UTF-8 Plain Text
  448. Duration                                 : 2 h 13 min
  449. Bit rate                                 : 47 b/s
  450. Count of elements                        : 1195
  451. Stream size                              : 46.5 KiB (0%)
  452. Title                                    : Vietnamese
  453. Language                                 : Vietnamese
  454. Default                                  : No
  455. Forced                                   : No
复制代码

狩猎的时候 Time.to.Hunt.2020.KOREAN.1080p.NF.WEBRip.DDP5.1.Atmos.x264-CM 6.66GB-2.png 狩猎的时候 Time.to.Hunt.2020.KOREAN.1080p.NF.WEBRip.DDP5.1.Atmos.x264-CM 6.66GB-3.png 狩猎的时候 Time.to.Hunt.2020.KOREAN.1080p.NF.WEBRip.DDP5.1.Atmos.x264-CM 6.66GB-4.png






回复

使用道具 举报

蓝光币
640
发表于 2020-4-24 13:37:24 | 显示全部楼层
谢谢楼主无私分享。
回复 支持 反对

使用道具 举报

懒得打字嘛,点击右侧快捷回复 【右侧内容,后台自定义】
您需要登录后才可以回帖 登录 | 立即加入

本版积分规则

Archiver|小黑屋| 蓝光电影网 |网站地图

Copyright © 2021 Comsenz Inc. Powered by 蓝光电影网

蓝光电影网

本站内容由用户自主分享和转载自互联网,转载目的在于传递更多信息,并不代表本网赞同其观点和对其真实性负责。

如有侵权、违反国家法律政策行为,请联系我们,我们会第一时间及时清除和处理!

举报反馈邮箱:[email protected]

快速回复 返回顶部 返回列表