找回密码

蓝光电影网

查看: 209|回复: 0

[剧情] 辽阔天空/恐惧苍穹 Big.Sky.2015.1080p.WEB-DL.DD5.1.H264-LAZY 3.60GB

[复制链接]
蓝光币
511
发表于 2020-4-24 15:30:03 | 显示全部楼层 |阅读模式
p2263697200.jpg

译  名 广宽天空 / 恐惧天穹(台)
片  名 Big Sky
年  代 2015
产  地 美国
类  别 剧情 / 惊悚
语  言 英语
IMDb评分  4.4/10 from 1304 users
IMDb链接  https://www.imdb.com/title/tt2689958
豆瓣评分 3.6/10 from 125 users
豆瓣链接 https://movie.douban.com/subject/21803659/
片  长 90分钟
导  演 Jorge Michel Grau
编  剧 Evan M. Wiener
主  演 贝拉·索恩 Bella Thorne
       凯拉·塞吉维克 Kyra Sedgwick
       艾伦·特维特 Aaron Tveit
       弗兰克·格里罗 Frank Grillo
       弗朗索瓦·阿诺德 Fran?ois Arnaud
       Ricky Tollman
       Jodi Lynn Thomas
       贝丝·贝利 Beth Bailey
       Michael Sheets
       Clif Stokes
       Mark Sivertsen
       Chiara Aurelia
       Terry Dale Parks


标  签 美国 | 惊悚 | 美国电影 | FrankGrillo | 2015 | 烂片 | 剧情 | 悬疑

简  介  

  A teen traveling with her mother to a treatment center for her agoraphobia has to fight for their lives against a gunman who attacks them.
  1. Video
  2. ID                                       : 1
  3. Format                                   : AVC
  4. Format/Info                              : Advanced Video Codec
  5. Format profile                           : [email protected]
  6. Format settings                          : CABAC / 4 Ref Frames
  7. Format settings, CABAC                   : Yes
  8. Format settings, Reference frames        : 4 frames
  9. Codec ID                                 : V_MPEG4/ISO/AVC
  10. Duration                                 : 1 h 35 min
  11. Bit rate                                 : 4 990 kb/s
  12. Width                                    : 1 912 pixels
  13. Height                                   : 1 072 pixels
  14. Display aspect ratio                     : 16:9
  15. Frame rate mode                          : Constant
  16. Frame rate                               : 23.976 (23976/1000/189150) FPS
  17. Color space                              : YUV
  18. Chroma subsampling                       : 4:2:0
  19. Bit depth                                : 8 bits
  20. Scan type                                : Progressive
  21. Bits/(Pixel*Frame)                       : 0.102
  22. Stream size                              : 3.34 GiB (93%)
  23. Language                                 : English
  24. Default                                  : Yes
  25. Forced                                   : No
  26. Color range                              : Limited
  27. Color primaries                          : BT.709
  28. Transfer characteristics                 : BT.709
  29. Matrix coefficients                      : BT.709

  30. Audio
  31. ID                                       : 2
  32. Format                                   : AC-3
  33. Format/Info                              : Audio Coding 3
  34. Commercial name                          : Dolby Digital
  35. Codec ID                                 : A_AC3
  36. Duration                                 : 1 h 35 min
  37. Bit rate mode                            : Constant
  38. Bit rate                                 : 384 kb/s
  39. Channel(s)                               : 6 channels
  40. Channel layout                           : L R C LFE Ls Rs
  41. Sampling rate                            : 48.0 kHz
  42. Frame rate                               : 31.250 FPS (1536 SPF)
  43. Bit depth                                : 16 bits
  44. Compression mode                         : Lossy
  45. Stream size                              : 263 MiB (7%)
  46. Language                                 : English
  47. Service kind                             : Complete Main
  48. Default                                  : Yes
  49. Forced                                   : No

  50. Text
  51. ID                                       : 3
  52. Format                                   : UTF-8
  53. Codec ID                                 : S_TEXT/UTF8
  54. Codec ID/Info                            : UTF-8 Plain Text
  55. Duration                                 : 1 h 29 min
  56. Bit rate                                 : 63 b/s
  57. Count of elements                        : 1035
  58. Stream size                              : 41.6 KiB (0%)
  59. Title                                    : SDH
  60. Language                                 : English
  61. Default                                  : No
  62. Forced                                   : No

  63. Menu
  64. 00:00:00.000                             : en:Chapter 1
  65. 00:10:47.000                             : en:Chapter 2
  66. 00:22:07.000                             : en:Chapter 3
  67. 00:30:55.000                             : en:Chapter 4
  68. 00:39:35.000                             : en:Chapter 5
  69. 00:48:25.000                             : en:Chapter 6
  70. 00:58:17.000                             : en:Chapter 7
  71. 01:06:39.000                             : en:Chapter 8
  72. 01:15:24.000                             : en:Chapter 9
  73. 01:22:21.000                             : en:Chapter 10
  74. 01:30:15.000                             : en:Chapter 11
复制代码

广宽天空/恐惧天穹 Big.Sky.2015.1080p.WEB-DL.DD5.1.H264-LAZY 3.60GB-1.png 广宽天空/恐惧天穹 Big.Sky.2015.1080p.WEB-DL.DD5.1.H264-LAZY 3.60GB-2.png 广宽天空/恐惧天穹 Big.Sky.2015.1080p.WEB-DL.DD5.1.H264-LAZY 3.60GB-3.png






回复

使用道具 举报

懒得打字嘛,点击右侧快捷回复 【右侧内容,后台自定义】
您需要登录后才可以回帖 登录 | 立即加入

本版积分规则

Archiver|小黑屋| 蓝光电影网 |网站地图

Copyright © 2021 Comsenz Inc. Powered by 蓝光电影网

蓝光电影网

本站内容由用户自主分享和转载自互联网,转载目的在于传递更多信息,并不代表本网赞同其观点和对其真实性负责。

如有侵权、违反国家法律政策行为,请联系我们,我们会第一时间及时清除和处理!

举报反馈邮箱:[email protected]

快速回复 返回顶部 返回列表