找回密码

蓝光电影网

查看: 172|回复: 0

[剧情] 星之来客 To.The.Stars.2019.1080p.WEB-DL.DD5.1.H264-FGT 3.87GB

[复制链接]
蓝光币
511
发表于 2020-4-24 15:30:50 | 显示全部楼层 |阅读模式
星之来客 To.The.Stars.2019.1080p.WEB-DL.DD5.1.H264-FGT 3.87GB-1.png

译  名 星之来客
片  名 To The Stars
年  代 2019
产  地 美国
类  别 剧情
语  言 英语
上映日期 2019-01-25(圣丹斯电影节) / 2020-04-24(美国)
IMDb评分  6.3/10 from 258 users
IMDb链接  https://www.imdb.com/title/tt6886080
豆瓣评分 0/10 from 0 users
豆瓣链接 https://movie.douban.com/subject/30390227/
片  长 109分钟(圣丹斯电影节)
导  演 玛莎·斯蒂芬斯 Martha Stephens
编  剧 Shannon Bradley-Colleary
主  演 玛琳·阿克曼 Malin Akerman
       乔丹娜·斯皮罗 Jordana Spiro
       托尼·海尔 Tony Hale
       丽亚娜·莱伯拉托 Liana Liberato
       谢伊·惠格姆 Shea Whigham
       卢卡斯·杰德·祖曼 Lucas Jade Zumann
       阿德莱德·克莱蒙丝 Adelaide Clemens
       卡拉·海沃德 Kara Hayward
       麦迪逊·贝蒂 Madisen Beaty
       蒂娜·帕克 Tina Parker
       娜塔莉.苏珊娜.加奈尔黛 Natalie Canerday
       J·D·埃弗摩尔 J.D. Evermore
       布兰登·斯坦利 Brandon Stanley
       索菲亚·贝尔利 Sophia Bairley
       Doug Jackson
       Farah White
       Quinn Gasaway


标  签 青春 | 美国电影 | 美国 | 文艺 | 剧情 | LGBT | 电影 | 影

简  介  

  Under small town scrutiny, a withdrawn farmer's daughter forges an intimate friendship with a worldly but reckless new girl in 1960s Oklahoma.

获奖情况  

  第35届圣丹斯电影节(2019)
  评审团大奖 剧情片(提名) 玛莎·斯蒂芬斯

  第54届卡罗维发利国际电影节(2019)
  水晶地球仪奖(提名) 玛莎·斯蒂芬斯
  1. Video
  2. ID                                       : 1
  3. Format                                   : AVC
  4. Format/Info                              : Advanced Video Codec
  5. Format profile                           : [email protected]
  6. Format settings                          : CABAC / 4 Ref Frames
  7. Format settings, CABAC                   : Yes
  8. Format settings, Reference frames        : 4 frames
  9. Codec ID                                 : V_MPEG4/ISO/AVC
  10. Duration                                 : 1 h 51 min
  11. Bit rate                                 : 4 586 kb/s
  12. Width                                    : 1 912 pixels
  13. Height                                   : 960 pixels
  14. Display aspect ratio                     : 1.992
  15. Frame rate mode                          : Constant
  16. Frame rate                               : 23.976 (24000/1001/189150) FPS
  17. Color space                              : YUV
  18. Chroma subsampling                       : 4:2:0
  19. Bit depth                                : 8 bits
  20. Scan type                                : Progressive
  21. Bits/(Pixel*Frame)                       : 0.104
  22. Stream size                              : 3.57 GiB (92%)
  23. Title                                    : To.The.Stars.2019.1080p.WEB-DL.DD5.1.H264-FGT
  24. Language                                 : English
  25. Default                                  : Yes
  26. Forced                                   : No
  27. Color range                              : Limited
  28. Color primaries                          : BT.709
  29. Transfer characteristics                 : BT.709
  30. Matrix coefficients                      : BT.709

  31. Audio
  32. ID                                       : 2
  33. Format                                   : AC-3
  34. Format/Info                              : Audio Coding 3
  35. Commercial name                          : Dolby Digital
  36. Codec ID                                 : A_AC3
  37. Duration                                 : 1 h 51 min
  38. Bit rate mode                            : Constant
  39. Bit rate                                 : 384 kb/s
  40. Channel(s)                               : 6 channels
  41. Channel layout                           : L R C LFE Ls Rs
  42. Sampling rate                            : 48.0 kHz
  43. Frame rate                               : 31.250 FPS (1536 SPF)
  44. Bit depth                                : 16 bits
  45. Compression mode                         : Lossy
  46. Stream size                              : 306 MiB (8%)
  47. Title                                    : To.The.Stars.2019.1080p.WEB-DL.DD5.1.H264-FGT
  48. Language                                 : English
  49. Service kind                             : Complete Main
  50. Default                                  : Yes
  51. Forced                                   : No

  52. Text
  53. ID                                       : 3
  54. Format                                   : UTF-8
  55. Codec ID                                 : S_TEXT/UTF8
  56. Codec ID/Info                            : UTF-8 Plain Text
  57. Duration                                 : 1 h 42 min
  58. Bit rate                                 : 51 b/s
  59. Count of elements                        : 1498
  60. Stream size                              : 39.1 KiB (0%)
  61. Language                                 : English
  62. Default                                  : Yes
  63. Forced                                   : No

  64. Menu
  65. 00:00:00.000                             : en:Chapter 1
  66. 00:09:22.979                             : en:Chapter 2
  67. 00:19:24.914                             : en:Chapter 3
  68. 00:29:46.994                             : en:Chapter 4
  69. 00:40:39.479                             : en:Chapter 5
  70. 00:49:09.946                             : en:Chapter 6
  71. 00:59:49.125                             : en:Chapter 7
  72. 01:09:50.099                             : en:Chapter 8
  73. 01:20:29.113                             : en:Chapter 9
  74. 01:30:10.569                             : en:Chapter 10
  75. 01:39:12.360                             : en:Chapter 11
  76. 01:47:10.588                             : en:Chapter 12
复制代码

星之来客 To.The.Stars.2019.1080p.WEB-DL.DD5.1.H264-FGT 3.87GB-2.png 星之来客 To.The.Stars.2019.1080p.WEB-DL.DD5.1.H264-FGT 3.87GB-3.png 星之来客 To.The.Stars.2019.1080p.WEB-DL.DD5.1.H264-FGT 3.87GB-4.png






回复

使用道具 举报

懒得打字嘛,点击右侧快捷回复 【右侧内容,后台自定义】
您需要登录后才可以回帖 登录 | 立即加入

本版积分规则

Archiver|小黑屋| 蓝光电影网 |网站地图

Copyright © 2021 Comsenz Inc. Powered by 蓝光电影网

蓝光电影网

本站内容由用户自主分享和转载自互联网,转载目的在于传递更多信息,并不代表本网赞同其观点和对其真实性负责。

如有侵权、违反国家法律政策行为,请联系我们,我们会第一时间及时清除和处理!

举报反馈邮箱:[email protected]

快速回复 返回顶部 返回列表