找回密码

蓝光电影网

查看: 225|回复: 0

[剧情] 凯利帮的真实历史/凯利帮正史 True.History.of.the.Kelly.Gang.2019.1080p.AMZN.WEBRip.DDP5.1.x264-NTG 8.21GB

[复制链接]
蓝光币
511
发表于 2020-4-24 23:10:13 | 显示全部楼层 |阅读模式
凯利帮的实在历史/凯利帮野史 True.History.of.the.Kelly.Gang.2019.1080p.AMZN.WEBRip.DDP5.1.x264-NTG 8.21GB-1.png

译  名 凯利帮的实在历史 / 凯利帮野史
片  名 The True History of the Kelly Gang
年  代 2019
产  地 英国 / 法国 / 澳大利亚
类  别 剧情 / 列传 / 犯罪
语  言 英语 / 拉丁语
上映日期 2019-09-11(多伦多电影节) / 2020-01-09(澳大利亚)
IMDb评分  6.1/10 from 2519 users
IMDb链接  https://www.imdb.com/title/tt4844140
豆瓣评分 6.3/10 from 1418 users
豆瓣链接 https://movie.douban.com/subject/27192028/
片  长 124分钟
导  演 贾斯汀·库泽尔  Justin Kurzel
编  剧 肖恩·格兰特 Shaun Grant / 彼得·凯里 Peter Carey
主  演 乔治·麦凯 George MacKay
       埃茜·戴维斯 Essie Davis
       尼古拉斯·霍尔特 Nicholas Hoult
       Orlando Schwerdt
       托马辛·麦肯齐 Thomasin McKenzie
       肖恩·基南 Sean Keenan
       厄尔·凯夫 Earl Cave
       马龙·威廉姆斯 Marlon Williams
       Louis Hewison
       查理·汉纳姆 Charlie Hunnam
       罗素·克劳 Russell Crowe
       James Ao
       Sarah Bedak
       Josephine Blazier
       艾米·克里斯蒂安 Amy Christian
       雅各布·柯林斯-莱维 Jacob Collins-Levy
       哈利·格林伍德 Harry Greenwood
       克劳迪娅·卡万 Claudia Karvan
       马凯拉·卡维纳赫 Markella Kavenagh


标  签 澳大利亚 | 犯罪 | 列传 | 澳大利亚电影 | 剧情 | 2019 | NicholasHoult | GeorgeMackay

简  介  

  罗素·克劳、尼古拉斯·霍尔特、乔治·麦凯、艾斯·戴维斯加盟列传犯罪剧情新片《凯利帮的实在历史》(The True History of the Kelly Gang),贾斯汀·库泽尔(《麦克白》《刺客信条》)执导,明年三月澳大利亚开拍。
  肖恩·格兰特(《贾斯珀·琼斯》《柏林综合症》)编写剧本,基于Peter Carey所著同名布克奖获奖小说,报告澳大利亚绿林好汉Edward "Ned" Kelly传奇的平生。凯利被公以为是最初一个,也是最著名的绿林好汉。因家庭遭受变故而亡命澳大利亚,他和弟弟以及好友一路建立了“凯利帮”,抵挡暴警和政府,在此时代谋杀了数名警官。他在人生中的最初大战中穿着防弹装甲与差人展开了剧烈的枪战,身受重伤,成为唯平生还者,被关进墨尔本的牢狱,于1880年被处以绞刑,年仅25岁。
  崔维斯·费米尔、肖恩·基南、达克雷·蒙特戈梅里(《怪奇物语》《恐龙战队》)、哈利·格林伍德、Thomasin McKenzie、Earl Cave等参演,Liz Watts、Hal Vogel、Brad Feinstein制片。
  1. Video
  2. ID                                       : 1
  3. Format                                   : AVC
  4. Format/Info                              : Advanced Video Codec
  5. Format profile                           : [email protected]
  6. Format settings                          : CABAC / 4 Ref Frames
  7. Format settings, CABAC                   : Yes
  8. Format settings, Reference frames        : 4 frames
  9. Codec ID                                 : V_MPEG4/ISO/AVC
  10. Duration                                 : 2 h 5 min
  11. Bit rate mode                            : Constant
  12. Bit rate                                 : 8 739 kb/s
  13. Nominal bit rate                         : 10 000 kb/s
  14. Width                                    : 1 920 pixels
  15. Height                                   : 1 040 pixels
  16. Display aspect ratio                     : 1.85:1
  17. Frame rate mode                          : Constant
  18. Frame rate                               : 23.976 (24000/1001/189150) FPS
  19. Color space                              : YUV
  20. Chroma subsampling                       : 4:2:0
  21. Bit depth                                : 8 bits
  22. Scan type                                : Progressive
  23. Bits/(Pixel*Frame)                       : 0.183
  24. Stream size                              : 7.65 GiB (93%)
  25. Default                                  : Yes
  26. Forced                                   : No
  27. Color range                              : Limited
  28. Color primaries                          : BT.709
  29. Transfer characteristics                 : BT.709
  30. Matrix coefficients                      : BT.709

  31. Audio
  32. ID                                       : 2
  33. Format                                   : E-AC-3
  34. Format/Info                              : Enhanced AC-3
  35. Commercial name                          : Dolby Digital Plus
  36. Codec ID                                 : A_EAC3
  37. Duration                                 : 2 h 5 min
  38. Bit rate mode                            : Constant
  39. Bit rate                                 : 640 kb/s
  40. Channel(s)                               : 6 channels
  41. Channel layout                           : L R C LFE Ls Rs
  42. Sampling rate                            : 48.0 kHz
  43. Frame rate                               : 31.250 FPS (1536 SPF)
  44. Compression mode                         : Lossy
  45. Stream size                              : 573 MiB (7%)
  46. Language                                 : English
  47. Service kind                             : Complete Main
  48. Default                                  : Yes
  49. Forced                                   : No

  50. Text #1
  51. ID                                       : 3
  52. Format                                   : UTF-8
  53. Codec ID                                 : S_TEXT/UTF8
  54. Codec ID/Info                            : UTF-8 Plain Text
  55. Duration                                 : 1 h 58 min
  56. Bit rate                                 : 52 b/s
  57. Count of elements                        : 1576
  58. Stream size                              : 45.6 KiB (0%)
  59. Language                                 : English
  60. Default                                  : No
  61. Forced                                   : No

  62. Text #2
  63. ID                                       : 4
  64. Format                                   : UTF-8
  65. Codec ID                                 : S_TEXT/UTF8
  66. Codec ID/Info                            : UTF-8 Plain Text
  67. Duration                                 : 2 h 3 min
  68. Bit rate                                 : 53 b/s
  69. Count of elements                        : 1774
  70. Stream size                              : 48.3 KiB (0%)
  71. Title                                    : SDH
  72. Language                                 : English
  73. Default                                  : No
  74. Forced                                   : No
复制代码

凯利帮的实在历史/凯利帮野史 True.History.of.the.Kelly.Gang.2019.1080p.AMZN.WEBRip.DDP5.1.x264-NTG 8.21GB-2.png 凯利帮的实在历史/凯利帮野史 True.History.of.the.Kelly.Gang.2019.1080p.AMZN.WEBRip.DDP5.1.x264-NTG 8.21GB-3.png 凯利帮的实在历史/凯利帮野史 True.History.of.the.Kelly.Gang.2019.1080p.AMZN.WEBRip.DDP5.1.x264-NTG 8.21GB-4.png






回复

使用道具 举报

懒得打字嘛,点击右侧快捷回复 【右侧内容,后台自定义】
您需要登录后才可以回帖 登录 | 立即加入

本版积分规则

Archiver|小黑屋| 蓝光电影网 |网站地图

Copyright © 2021 Comsenz Inc. Powered by 蓝光电影网

蓝光电影网

本站内容由用户自主分享和转载自互联网,转载目的在于传递更多信息,并不代表本网赞同其观点和对其真实性负责。

如有侵权、违反国家法律政策行为,请联系我们,我们会第一时间及时清除和处理!

举报反馈邮箱:[email protected]

快速回复 返回顶部 返回列表