找回密码

蓝光电影网

查看: 210|回复: 0

[喜剧] 此生唯愿吸血鬼/还差一点点 比特 Bit.2019.1080p.AMZN.WEBRip.DDP5.1.x264-NTG 6.15GB

[复制链接]
蓝光币
519
发表于 2020-4-24 23:11:09 | 显示全部楼层 |阅读模式
今生唯愿吸血鬼/还差一点点 比特 Bit.2019.1080p.AMZN.WEBRip.DDP5.1.x264-NTG 6.15GB-1.png

译  名 今生唯愿吸血鬼 / 还差一点点 比特
片  名 Bit
年  代 2019
产  地 美国
类  别 笑剧 / 可骇
语  言 英语
上映日期 2019-05-24(Inside Out festival)
IMDb评分  4.8/10 from 83 users
IMDb链接  https://www.imdb.com/title/tt8425034
豆瓣评分 0/10 from 0 users
豆瓣链接 https://movie.douban.com/subject/33476861/
片  长 90分钟
导  演 Brad Michael Elmore
编  剧 Brad Michael Elmore
主  演 Nicole Maines
       迈克·康纳·盖尼 M.C. Gainey
       黛安娜·霍佩尔 Diana Hopper


标  签 美国电影 | LGBT | 詹姆斯·帕克斯顿 | 可骇 | 笑剧

简  介  

  Desperate to get away from her small-town roots and find a like-minded community, Laurel hits the road for Los Angeles as soon as she graduates from high school. Sure, people in L.A. are different, but do these people seem extra different? Yes, they do, because they are vampires.
  1. Video
  2. ID                                       : 1
  3. Format                                   : AVC
  4. Format/Info                              : Advanced Video Codec
  5. Format profile                           : [email protected]
  6. Format settings                          : CABAC / 4 Ref Frames
  7. Format settings, CABAC                   : Yes
  8. Format settings, Reference frames        : 4 frames
  9. Codec ID                                 : V_MPEG4/ISO/AVC
  10. Duration                                 : 1 h 34 min
  11. Bit rate mode                            : Constant
  12. Bit rate                                 : 8 722 kb/s
  13. Nominal bit rate                         : 10 000 kb/s
  14. Width                                    : 1 920 pixels
  15. Height                                   : 1 040 pixels
  16. Display aspect ratio                     : 1.85:1
  17. Frame rate mode                          : Constant
  18. Frame rate                               : 23.976 (24000/1001/189150) FPS
  19. Color space                              : YUV
  20. Chroma subsampling                       : 4:2:0
  21. Bit depth                                : 8 bits
  22. Scan type                                : Progressive
  23. Bits/(Pixel*Frame)                       : 0.182
  24. Stream size                              : 5.73 GiB (93%)
  25. Default                                  : Yes
  26. Forced                                   : No
  27. Color range                              : Limited
  28. Color primaries                          : BT.709
  29. Transfer characteristics                 : BT.709
  30. Matrix coefficients                      : BT.709

  31. Audio
  32. ID                                       : 2
  33. Format                                   : E-AC-3
  34. Format/Info                              : Enhanced AC-3
  35. Commercial name                          : Dolby Digital Plus
  36. Codec ID                                 : A_EAC3
  37. Duration                                 : 1 h 34 min
  38. Bit rate mode                            : Constant
  39. Bit rate                                 : 640 kb/s
  40. Channel(s)                               : 6 channels
  41. Channel layout                           : L R C LFE Ls Rs
  42. Sampling rate                            : 48.0 kHz
  43. Frame rate                               : 31.250 FPS (1536 SPF)
  44. Compression mode                         : Lossy
  45. Stream size                              : 430 MiB (7%)
  46. Language                                 : English
  47. Service kind                             : Complete Main
  48. Default                                  : Yes
  49. Forced                                   : No

  50. Text #1
  51. ID                                       : 3
  52. Format                                   : UTF-8
  53. Codec ID                                 : S_TEXT/UTF8
  54. Codec ID/Info                            : UTF-8 Plain Text
  55. Duration                                 : 1 h 33 min
  56. Bit rate                                 : 53 b/s
  57. Count of elements                        : 1362
  58. Stream size                              : 36.7 KiB (0%)
  59. Language                                 : English
  60. Default                                  : No
  61. Forced                                   : No

  62. Text #2
  63. ID                                       : 4
  64. Format                                   : UTF-8
  65. Codec ID                                 : S_TEXT/UTF8
  66. Codec ID/Info                            : UTF-8 Plain Text
  67. Duration                                 : 1 h 33 min
  68. Bit rate                                 : 57 b/s
  69. Count of elements                        : 1500
  70. Stream size                              : 39.2 KiB (0%)
  71. Title                                    : SDH
  72. Language                                 : English
  73. Default                                  : No
  74. Forced                                   : No
复制代码

今生唯愿吸血鬼/还差一点点 比特 Bit.2019.1080p.AMZN.WEBRip.DDP5.1.x264-NTG 6.15GB-2.png 今生唯愿吸血鬼/还差一点点 比特 Bit.2019.1080p.AMZN.WEBRip.DDP5.1.x264-NTG 6.15GB-3.png 今生唯愿吸血鬼/还差一点点 比特 Bit.2019.1080p.AMZN.WEBRip.DDP5.1.x264-NTG 6.15GB-4.png






回复

使用道具 举报

懒得打字嘛,点击右侧快捷回复 【右侧内容,后台自定义】
您需要登录后才可以回帖 登录 | 立即加入

本版积分规则

Archiver|小黑屋| 蓝光电影网 |网站地图

Copyright © 2021 Comsenz Inc. Powered by 蓝光电影网

蓝光电影网

本站内容由用户自主分享和转载自互联网,转载目的在于传递更多信息,并不代表本网赞同其观点和对其真实性负责。

如有侵权、违反国家法律政策行为,请联系我们,我们会第一时间及时清除和处理!

举报反馈邮箱:[email protected]ail.com

快速回复 返回顶部 返回列表