找回密码

蓝光电影网

查看: 185|回复: 0

[剧情] 战栗第六感/幻影重现 Sensation.1994.1080p.AMZN.WEBRip.DDP2.0.x264-ABM 7.13GB

[复制链接]
蓝光币
511
发表于 2020-4-24 23:17:47 | 显示全部楼层 |阅读模式
战栗第六感/幻影重现 Sensation.1994.1080p.AMZN.WEBRip.DDP2.0.x264-ABM 7.13GB-1.png

译  名 战栗第六感 / 幻影重现 / 感官中枢
片  名 Sensation
年  代 1994
产  地 美国
类  别 剧情 / 惊悚
语  言 英语
上映日期 1995-01-24
IMDb评分  5.1/10 from 492 users
IMDb链接  https://www.imdb.com/title/tt0111122
豆瓣评分 0/10 from 0 users
豆瓣链接 https://movie.douban.com/subject/1295358/
片  长 102 分钟
导  演 布莱恩·格兰特 Brian Grant
编  剧 Doug Wallace
主  演 埃里克·罗伯茨 Eric Roberts
       卡瑞·伍尔 Kari Wuhrer
       朗·普尔曼 Ron Perlman
       保罗·勒马特 Paul Le Mat
       克莱尔·斯坦斯菲尔德 Claire Stansfield
       特蕾西·尼汉姆 Tracey Needham
       基兰·马尔罗尼 Kieran Mulroney
       小艾德·博格里 Ed Begley Jr.


标  签 美国电影 | 我的电影4 | 1994 | 未下载 | 卡瑞·伍尔 | BrianGrant

简  介  

  暂无相关剧情先容
  1. Video
  2. ID                                       : 1
  3. Format                                   : AVC
  4. Format/Info                              : Advanced Video Codec
  5. Format profile                           : [email protected]
  6. Format settings                          : CABAC / 4 Ref Frames
  7. Format settings, CABAC                   : Yes
  8. Format settings, Reference frames        : 4 frames
  9. Codec ID                                 : V_MPEG4/ISO/AVC
  10. Duration                                 : 1 h 43 min
  11. Bit rate mode                            : Constant
  12. Bit rate                                 : 10 000 kb/s
  13. Width                                    : 1 920 pixels
  14. Height                                   : 1 080 pixels
  15. Display aspect ratio                     : 16:9
  16. Frame rate mode                          : Constant
  17. Frame rate                               : 24.000 FPS
  18. Color space                              : YUV
  19. Chroma subsampling                       : 4:2:0
  20. Bit depth                                : 8 bits
  21. Scan type                                : Progressive
  22. Bits/(Pixel*Frame)                       : 0.201
  23. Stream size                              : 6.97 GiB (98%)
  24. Language                                 : English
  25. Default                                  : Yes
  26. Forced                                   : No
  27. Color range                              : Limited
  28. Color primaries                          : BT.709
  29. Transfer characteristics                 : BT.709
  30. Matrix coefficients                      : BT.709

  31. Audio
  32. ID                                       : 2
  33. Format                                   : E-AC-3
  34. Format/Info                              : Enhanced AC-3
  35. Commercial name                          : Dolby Digital Plus
  36. Codec ID                                 : A_EAC3
  37. Duration                                 : 1 h 43 min
  38. Bit rate mode                            : Constant
  39. Bit rate                                 : 224 kb/s
  40. Channel(s)                               : 2 channels
  41. Channel layout                           : L R
  42. Sampling rate                            : 48.0 kHz
  43. Frame rate                               : 31.250 FPS (1536 SPF)
  44. Compression mode                         : Lossy
  45. Stream size                              : 165 MiB (2%)
  46. Language                                 : English
  47. Service kind                             : Complete Main
  48. Default                                  : Yes
  49. Forced                                   : No

  50. Text
  51. ID                                       : 3
  52. Format                                   : UTF-8
  53. Codec ID                                 : S_TEXT/UTF8
  54. Codec ID/Info                            : UTF-8 Plain Text
  55. Duration                                 : 1 h 39 min
  56. Bit rate                                 : 53 b/s
  57. Count of elements                        : 1481
  58. Stream size                              : 38.7 KiB (0%)
  59. Language                                 : English
  60. Default                                  : No
  61. Forced                                   : No
复制代码

战栗第六感/幻影重现 Sensation.1994.1080p.AMZN.WEBRip.DDP2.0.x264-ABM 7.13GB-2.png 战栗第六感/幻影重现 Sensation.1994.1080p.AMZN.WEBRip.DDP2.0.x264-ABM 7.13GB-3.png 战栗第六感/幻影重现 Sensation.1994.1080p.AMZN.WEBRip.DDP2.0.x264-ABM 7.13GB-4.png






回复

使用道具 举报

懒得打字嘛,点击右侧快捷回复 【右侧内容,后台自定义】
您需要登录后才可以回帖 登录 | 立即加入

本版积分规则

Archiver|小黑屋| 蓝光电影网 |网站地图

Copyright © 2021 Comsenz Inc. Powered by 蓝光电影网

蓝光电影网

本站内容由用户自主分享和转载自互联网,转载目的在于传递更多信息,并不代表本网赞同其观点和对其真实性负责。

如有侵权、违反国家法律政策行为,请联系我们,我们会第一时间及时清除和处理!

举报反馈邮箱:[email protected]

快速回复 返回顶部 返回列表