找回密码

蓝光电影网

查看: 237|回复: 1

[剧情] 我仍然相信/依然相信 I.Still.Believe.2020.1080p.BluRay.x264-YOL0W 15.68GB

[复制链接]
蓝光币
515
发表于 2020-4-25 11:48:18 | 显示全部楼层 |阅读模式
我仍然相信/仍然相信 I.Still.Believe.2020.1080p.BluRay.x264-YOL0W 15.68GB-1.png

译  名 我仍然相信 / 仍然相信(台) / 信心依存
片  名 I Still Believe
年  代 2020
产  地 美国
类  别 剧情 / 恋爱 / 音乐
语  言 英语
上映日期 2020-03-13(美国)
IMDb评分  6.5/10 from 2545 users
IMDb链接  https://www.imdb.com/title/tt9779516
豆瓣评分 6.1/10 from 132 users
豆瓣链接 https://movie.douban.com/subject/34802738/
片  长 115分钟
导  演 安德鲁·欧文 Andrew Erwin / 乔恩·欧文 Jon Erwin
编  剧 乔恩·欧文 Jon Erwin / 乔·戈恩 Jon Gunn
主  演 布丽特·罗伯森 Britt Robertson
       K·J·阿帕 K.J. Apa
       梅丽莎·罗斯伯格 Melissa Roxburgh
       阿比盖尔·F·考恩 Abigail F. Cowen
       加里·西尼斯 Gary Sinise
       内森·帕森斯 Nathan Parsons
       仙妮娅·唐恩 Shania Twain
       鲁本·多德 Reuben Dodd
       卡梅伦·阿内特 Cameron Arnett
       塔妮娅·克里斯汀森 Tanya Christiansen
       谢·杜伊特 Sheé Dueitt
       尼古拉斯·G·西姆斯 Nicholas G. Sims
       艾莉莎·冈萨雷斯 Alyssa Gonzalez
       格里芬·胡德 Griffin Hood


标  签 恋爱 | 音乐 | 美国 | 实在事务改编 | 信仰 | 电影 | 2020 | 基督教

简  介  

  报告了基督教音乐明星杰里米·坎普的实在生活故事和他爱与落空的旅程,这似乎证实了永久都有希望。
  1. Video
  2. ID                                       : 1
  3. Format                                   : AVC
  4. Format/Info                              : Advanced Video Codec
  5. Format profile                           : [email protected]
  6. Format settings                          : CABAC / 5 Ref Frames
  7. Format settings, CABAC                   : Yes
  8. Format settings, Reference frames        : 5 frames
  9. Codec ID                                 : V_MPEG4/ISO/AVC
  10. Duration                                 : 1 h 56 min
  11. Bit rate                                 : 14.7 Mb/s
  12. Width                                    : 1 920 pixels
  13. Height                                   : 800 pixels
  14. Display aspect ratio                     : 2.40:1
  15. Frame rate mode                          : Constant
  16. Frame rate                               : 23.976 (24000/1001/189150) FPS
  17. Color space                              : YUV
  18. Chroma subsampling                       : 4:2:0
  19. Bit depth                                : 8 bits
  20. Scan type                                : Progressive
  21. Bits/(Pixel*Frame)                       : 0.398
  22. Stream size                              : 11.9 GiB (76%)
  23. Writing library                          : x264 core 160 r3000 33f9e14
  24. Encoding settings                        : cabac=1 / ref=5 / deblock=1:-3:-3 / analyse=0x3:0x133 / me=umh / subme=10 / psy=1 / psy_rd=1.00:0.00 / mixed_ref=1 / me_range=32 / chroma_me=1 / trellis=2 / 8x8dct=1 / cqm=0 / deadzone=21,11 / fast_pskip=0 / chroma_qp_offset=-2 / threads=24 / lookahead_threads=4 / sliced_threads=0 / nr=0 / decimate=0 / interlaced=0 / bluray_compat=0 / constrained_intra=0 / bframes=8 / b_pyramid=2 / b_adapt=2 / b_bias=0 / direct=3 / weightb=1 / open_gop=0 / weightp=2 / keyint=250 / keyint_min=23 / scenecut=40 / intra_refresh=0 / rc=crf / mbtree=0 / crf=15.0 / qcomp=0.60 / qpmin=0 / qpmax=69 / qpstep=4 / ip_ratio=1.40 / pb_ratio=1.30 / aq=3:0.80
  25. Default                                  : Yes
  26. Forced                                   : No
  27. Color range                              : Limited
  28. Matrix coefficients                      : BT.709

  29. Audio #1
  30. ID                                       : 2
  31. Format                                   : MLP FBA 16-ch
  32. Format/Info                              : Meridian Lossless Packing FBA with 16-channel presentation
  33. Commercial name                          : Dolby TrueHD with Dolby Atmos
  34. Codec ID                                 : A_TRUEHD
  35. Duration                                 : 1 h 56 min
  36. Bit rate mode                            : Variable
  37. Bit rate                                 : 3 943 kb/s
  38. Maximum bit rate                         : 6 753 kb/s
  39. Channel(s)                               : 8 channels
  40. Channel layout                           : L R C LFE Ls Rs Lb Rb
  41. Sampling rate                            : 48.0 kHz
  42. Frame rate                               : 1 200.000 FPS (40 SPF)
  43. Compression mode                         : Lossless
  44. Stream size                              : 3.21 GiB (20%)
  45. Title                                    : English
  46. Language                                 : English
  47. Default                                  : Yes
  48. Forced                                   : No
  49. Number of dynamic objects                : 11
  50. Bed channel count                        : 1 channel
  51. Bed channel configuration                : LFE

  52. Audio #2
  53. ID                                       : 3
  54. Format                                   : AC-3
  55. Format/Info                              : Audio Coding 3
  56. Commercial name                          : Dolby Digital
  57. Codec ID                                 : A_AC3
  58. Duration                                 : 1 h 56 min
  59. Bit rate mode                            : Constant
  60. Bit rate                                 : 448 kb/s
  61. Channel(s)                               : 6 channels
  62. Channel layout                           : L R C LFE Ls Rs
  63. Sampling rate                            : 48.0 kHz
  64. Frame rate                               : 31.250 FPS (1536 SPF)
  65. Bit depth                                : 16 bits
  66. Compression mode                         : Lossy
  67. Stream size                              : 373 MiB (2%)
  68. Title                                    : English
  69. Language                                 : English
  70. Service kind                             : Complete Main
  71. Default                                  : No
  72. Forced                                   : No

  73. Audio #3
  74. ID                                       : 4
  75. Format                                   : AAC LC
  76. Format/Info                              : Advanced Audio Codec Low Complexity
  77. Codec ID                                 : A_AAC-2
  78. Duration                                 : 1 h 56 min
  79. Bit rate                                 : 102 kb/s
  80. Channel(s)                               : 2 channels
  81. Channel layout                           : L R
  82. Sampling rate                            : 48.0 kHz
  83. Frame rate                               : 46.875 FPS (1024 SPF)
  84. Compression mode                         : Lossy
  85. Delay relative to video                  : 9 ms
  86. Stream size                              : 84.8 MiB (1%)
  87. Title                                    : Commentary with Director Andrew Erwin, Writer/Director Jon Erwin, Writer Jon Gunn & Producer Kevin Downes
  88. Language                                 : English
  89. Default                                  : No
  90. Forced                                   : No

  91. Text #1
  92. ID                                       : 5
  93. Format                                   : PGS
  94. Muxing mode                              : zlib
  95. Codec ID                                 : S_HDMV/PGS
  96. Codec ID/Info                            : Picture based subtitle format used on BDs/HD-DVDs
  97. Duration                                 : 1 h 50 min
  98. Bit rate                                 : 31.7 kb/s
  99. Count of elements                        : 2988
  100. Stream size                              : 25.0 MiB (0%)
  101. Language                                 : English
  102. Default                                  : No
  103. Forced                                   : No

  104. Text #2
  105. ID                                       : 6
  106. Format                                   : PGS
  107. Muxing mode                              : zlib
  108. Codec ID                                 : S_HDMV/PGS
  109. Codec ID/Info                            : Picture based subtitle format used on BDs/HD-DVDs
  110. Duration                                 : 1 h 51 min
  111. Bit rate                                 : 24.7 kb/s
  112. Count of elements                        : 2598
  113. Stream size                              : 19.7 MiB (0%)
  114. Language                                 : Spanish
  115. Default                                  : No
  116. Forced                                   : No

  117. Text #3
  118. ID                                       : 7
  119. Format                                   : PGS
  120. Muxing mode                              : zlib
  121. Codec ID                                 : S_HDMV/PGS
  122. Codec ID/Info                            : Picture based subtitle format used on BDs/HD-DVDs
  123. Duration                                 : 1 h 51 min
  124. Bit rate                                 : 30.0 kb/s
  125. Count of elements                        : 2820
  126. Stream size                              : 23.9 MiB (0%)
  127. Language                                 : French
  128. Default                                  : No
  129. Forced                                   : No

  130. Menu
  131. 00:00:00.000                             : en:Chapter 01
  132. 00:07:43.880                             : en:Chapter 02
  133. 00:14:32.080                             : en:Chapter 03
  134. 00:19:52.900                             : en:Chapter 04
  135. 00:25:34.199                             : en:Chapter 05
  136. 00:33:04.107                             : en:Chapter 06
  137. 00:39:22.735                             : en:Chapter 07
  138. 00:47:26.761                             : en:Chapter 08
  139. 00:55:02.758                             : en:Chapter 09
  140. 01:06:57.555                             : en:Chapter 10
  141. 01:12:09.116                             : en:Chapter 11
  142. 01:20:37.583                             : en:Chapter 12
  143. 01:32:14.237                             : en:Chapter 13
  144. 01:37:09.657                             : en:Chapter 14
  145. 01:42:56.003                             : en:Chapter 15
  146. 01:49:35.027                             : en:Chapter 16
复制代码

我仍然相信/仍然相信 I.Still.Believe.2020.1080p.BluRay.x264-YOL0W 15.68GB-2.png






回复

使用道具 举报

懒得打字嘛,点击右侧快捷回复 【右侧内容,后台自定义】
您需要登录后才可以回帖 登录 | 立即加入

本版积分规则

Archiver|小黑屋| 蓝光电影网 |网站地图

Copyright © 2021 Comsenz Inc. Powered by 蓝光电影网

蓝光电影网

本站内容由用户自主分享和转载自互联网,转载目的在于传递更多信息,并不代表本网赞同其观点和对其真实性负责。

如有侵权、违反国家法律政策行为,请联系我们,我们会第一时间及时清除和处理!

举报反馈邮箱:[email protected]

快速回复 返回顶部 返回列表