找回密码

蓝光电影网

查看: 220|回复: 0

[剧情] 神秘失踪 The.Vanishing.1988.REMASTERED.720p.BluRay.x264-USURY 7.32GB

[复制链接]
蓝光币
515
发表于 2020-4-25 11:51:09 | 显示全部楼层 |阅读模式
奥秘失落 The.Vanishing.1988.REMASTERED.720p.BluRay.x264-USURY 7.32GB-1.png

译  名 奥秘失落 / The Vanishing / 逝影惊心
片  名 Spoorloos
年  代 1988
产  地 荷兰 / 法国
类  别 剧情 / 悬疑 / 惊悚 / 犯罪
语  言 荷兰语 / 法语 / 英语
上映日期 1988-10-27
IMDb评分  7.7/10 from 31596 users
IMDb链接  https://www.imdb.com/title/tt0096163
豆瓣评分 7.0/10 from 2860 users
豆瓣链接 https://movie.douban.com/subject/1296432/
片  长 107 分钟
导  演 George Sluizer
编  剧 Tim Krabbé / George Sluizer
主  演 Bernard-Pierre Donnadieu
       Gene Bervoets
       Johanna ter Steege


标  签 悬疑 | 荷兰 | 惊悚 | 法国 | 1988 | 荷兰电影 | 可骇 | 犯罪

简  介  

  杰夫(伯纳德-皮亚里·唐纳狄欧 Bernard-Pierre Donnadieu 饰)和女友戴安娜(约翰娜·特尔·斯蒂格 Johanna ter Steege 饰)的豪情一向非常要好,一次观光中,去买饮料的戴安娜忽然失落。大家说失落只是戴安娜分开杰夫的捏词,但这并不能阻止杰夫追逐寻觅戴安娜的脚步。
  一转眼,三年曩昔了。这三年里,戴安娜照旧消息全无,杰夫寻觅到的全数都只是失望。在一切人都萌生了放弃的动机之时,杰夫接到了一个名叫巴尼(Gene Bervoets 饰)的陌生汉子的电话。巴尼告诉杰夫,他晓得戴安娜的踪影并愿意帮助杰夫,但有一个条件,那就是杰夫必须履历戴安娜这些年来所履历过的一切。寻民气切的杰夫接管了这个条件,同时也掉入了巴尼一手设下的圈套当中。
  1. Video
  2. ID                                       : 1
  3. Format                                   : AVC
  4. Format/Info                              : Advanced Video Codec
  5. Format profile                           : [email protected]
  6. Format settings                          : CABAC / 10 Ref Frames
  7. Format settings, CABAC                   : Yes
  8. Format settings, Reference frames        : 10 frames
  9. Codec ID                                 : V_MPEG4/ISO/AVC
  10. Duration                                 : 1 h 46 min
  11. Bit rate                                 : 9 019 kb/s
  12. Width                                    : 1 152 pixels
  13. Height                                   : 720 pixels
  14. Display aspect ratio                     : 16:10
  15. Frame rate mode                          : Constant
  16. Frame rate                               : 24.000 FPS
  17. Color space                              : YUV
  18. Chroma subsampling                       : 4:2:0
  19. Bit depth                                : 8 bits
  20. Scan type                                : Progressive
  21. Bits/(Pixel*Frame)                       : 0.453
  22. Stream size                              : 6.71 GiB (92%)
  23. Writing library                          : x264 core 159 r2991 1771b55
  24. Encoding settings                        : cabac=1 / ref=10 / deblock=1:-3:-3 / analyse=0x3:0x133 / me=umh / subme=10 / psy=1 / psy_rd=1.20:0.00 / mixed_ref=1 / me_range=24 / chroma_me=1 / trellis=2 / 8x8dct=1 / cqm=0 / deadzone=21,11 / fast_pskip=1 / chroma_qp_offset=-2 / threads=18 / lookahead_threads=3 / sliced_threads=0 / nr=0 / decimate=1 / interlaced=0 / bluray_compat=0 / constrained_intra=0 / bframes=8 / b_pyramid=2 / b_adapt=2 / b_bias=0 / direct=3 / weightb=1 / open_gop=0 / weightp=2 / keyint=250 / keyint_min=24 / scenecut=40 / intra_refresh=0 / rc_lookahead=60 / rc=crf / mbtree=1 / crf=19.0 / qcomp=0.60 / qpmin=0 / qpmax=69 / qpstep=4 / ip_ratio=1.40 / aq=3:0.50
  25. Language                                 : English
  26. Default                                  : Yes
  27. Forced                                   : No
  28. Color range                              : Limited
  29. Matrix coefficients                      : BT.709

  30. Audio
  31. ID                                       : 2
  32. Format                                   : FLAC
  33. Format/Info                              : Free Lossless Audio Codec
  34. Codec ID                                 : A_FLAC
  35. Duration                                 : 1 h 46 min
  36. Bit rate mode                            : Variable
  37. Bit rate                                 : 810 kb/s
  38. Channel(s)                               : 2 channels
  39. Channel layout                           : L R
  40. Sampling rate                            : 48.0 kHz
  41. Frame rate                               : 11.719 FPS (4096 SPF)
  42. Bit depth                                : 24 bits
  43. Compression mode                         : Lossless
  44. Stream size                              : 617 MiB (8%)
  45. Writing library                          : libFLAC 1.2.1 (UTC 2007-09-17)
  46. Language                                 : Dutch
  47. Default                                  : Yes
  48. Forced                                   : No

  49. Text #1
  50. ID                                       : 3
  51. Format                                   : UTF-8
  52. Codec ID                                 : S_TEXT/UTF8
  53. Codec ID/Info                            : UTF-8 Plain Text
  54. Duration                                 : 1 h 43 min
  55. Bit rate                                 : 33 b/s
  56. Count of elements                        : 823
  57. Stream size                              : 25.7 KiB (0%)
  58. Title                                    : English
  59. Language                                 : English
  60. Default                                  : Yes
  61. Forced                                   : Yes

  62. Text #2
  63. ID                                       : 4
  64. Format                                   : PGS
  65. Muxing mode                              : zlib
  66. Codec ID                                 : S_HDMV/PGS
  67. Codec ID/Info                            : Picture based subtitle format used on BDs/HD-DVDs
  68. Duration                                 : 1 h 43 min
  69. Bit rate                                 : 7 657 b/s
  70. Count of elements                        : 1646
  71. Stream size                              : 5.69 MiB (0%)
  72. Title                                    : English
  73. Language                                 : English
  74. Default                                  : No
  75. Forced                                   : No

  76. Text #3
  77. ID                                       : 5
  78. Format                                   : UTF-8
  79. Codec ID                                 : S_TEXT/UTF8
  80. Codec ID/Info                            : UTF-8 Plain Text
  81. Duration                                 : 1 h 44 min
  82. Bit rate                                 : 34 b/s
  83. Count of elements                        : 814
  84. Stream size                              : 26.6 KiB (0%)
  85. Title                                    : German
  86. Language                                 : German
  87. Default                                  : No
  88. Forced                                   : No

  89. Text #4
  90. ID                                       : 6
  91. Format                                   : PGS
  92. Muxing mode                              : zlib
  93. Codec ID                                 : S_HDMV/PGS
  94. Codec ID/Info                            : Picture based subtitle format used on BDs/HD-DVDs
  95. Duration                                 : 1 h 44 min
  96. Bit rate                                 : 7 706 b/s
  97. Count of elements                        : 1628
  98. Stream size                              : 5.76 MiB (0%)
  99. Title                                    : German
  100. Language                                 : German
  101. Default                                  : No
  102. Forced                                   : No

  103. Menu
  104. 00:00:00.000                             : en:00:00:00.000
  105. 00:08:28.583                             : en:00:08:28.583
  106. 00:16:51.833                             : en:00:16:51.833
  107. 00:24:42.042                             : en:00:24:42.042
  108. 00:33:19.125                             : en:00:33:19.125
  109. 00:40:23.208                             : en:00:40:23.208
  110. 00:52:56.250                             : en:00:52:56.250
  111. 01:02:48.458                             : en:01:02:48.458
  112. 01:09:08.917                             : en:01:09:08.917
  113. 01:18:51.500                             : en:01:18:51.500
  114. 01:32:11.708                             : en:01:32:11.708
  115. 01:45:03.083                             : en:01:45:03.083
复制代码

奥秘失落 The.Vanishing.1988.REMASTERED.720p.BluRay.x264-USURY 7.32GB-2.png






回复

使用道具 举报

懒得打字嘛,点击右侧快捷回复 【右侧内容,后台自定义】
您需要登录后才可以回帖 登录 | 立即加入

本版积分规则

Archiver|小黑屋| 蓝光电影网 |网站地图

Copyright © 2021 Comsenz Inc. Powered by 蓝光电影网

蓝光电影网

本站内容由用户自主分享和转载自互联网,转载目的在于传递更多信息,并不代表本网赞同其观点和对其真实性负责。

如有侵权、违反国家法律政策行为,请联系我们,我们会第一时间及时清除和处理!

举报反馈邮箱:[email protected]

快速回复 返回顶部 返回列表