找回密码

蓝光电影网

查看: 282|回复: 1

[剧情] 愛到盡 End.of.Love.2009.1080p.BluRay.x264-MELiTE 6.56GB

[复制链接]
蓝光币
511
发表于 2020-4-25 11:52:59 | 显示全部楼层 |阅读模式
愛到盡 End.of.Love.2009.1080p.BluRay.x264-MELiTE 6.56GB-1.png

译  名 爱到尽 / End of Love
片  名 愛到盡
年  代 2009
产  地 中国香港 / 中国大陆
类  别 剧情 / 同性
语  言 粤语
上映日期 2008-11-23
IMDb评分  5.1/10 from 232 users
IMDb链接  https://www.imdb.com/title/tt1362068
豆瓣评分 6.1/10 from 820 users
豆瓣链接 https://movie.douban.com/subject/3445524/
片  长 97分钟
导  演 钟德胜
编  剧 钟德胜
主  演 李志健
       叶荣煌
       关逸扬
       杨尚斌
       蒋祖曼


标  签 香港 | 同道 | 香港电影 | 同性 | 爱到尽 | Gay | 2008 | 同性恋

简  介  

  《愛到盡》是導演鍾德勝繼《只愛陌生人》(2005)後的最新力作,它是一個關於欺騙和变节的同道電影。故事圍繞一位叛逆的青年,其母因為接管不了他的同性戀傾向而自殺,促使他終日以毒品來麻醉自己,並開始了賣淫生活。男友為拯救他而報警乞助。進入了戒毒所的他又認識了一位前吸毒者。在離開戒毒所後,二人發展出一段曖昧的關係。怎料,竟換來不成估計的繁重後果。
  1. Video
  2. ID                                       : 1
  3. Format                                   : AVC
  4. Format/Info                              : Advanced Video Codec
  5. Format profile                           : [email protected]
  6. Format settings                          : CABAC / 4 Ref Frames
  7. Format settings, CABAC                   : Yes
  8. Format settings, Reference frames        : 4 frames
  9. Codec ID                                 : V_MPEG4/ISO/AVC
  10. Duration                                 : 1 h 37 min
  11. Bit rate                                 : 9 295 kb/s
  12. Width                                    : 1 920 pixels
  13. Height                                   : 1 080 pixels
  14. Display aspect ratio                     : 16:9
  15. Frame rate mode                          : Constant
  16. Frame rate                               : 25.000 FPS
  17. Color space                              : YUV
  18. Chroma subsampling                       : 4:2:0
  19. Bit depth                                : 8 bits
  20. Scan type                                : Progressive
  21. Bits/(Pixel*Frame)                       : 0.179
  22. Stream size                              : 6.17 GiB (94%)
  23. Writing library                          : x264 core 119 r2106 07efeb4
  24. Encoding settings                        : cabac=1 / ref=4 / deblock=1:0:0 / analyse=0x3:0x113 / me=umh / subme=7 / psy=1 / psy_rd=1.00:0.00 / mixed_ref=1 / me_range=16 / chroma_me=1 / trellis=1 / 8x8dct=1 / cqm=0 / deadzone=21,11 / fast_pskip=0 / chroma_qp_offset=-2 / threads=12 / sliced_threads=0 / nr=0 / decimate=1 / interlaced=0 / bluray_compat=0 / constrained_intra=0 / bframes=3 / b_pyramid=2 / b_adapt=1 / b_bias=0 / direct=1 / weightb=1 / open_gop=0 / weightp=2 / keyint=250 / keyint_min=25 / scenecut=40 / intra_refresh=0 / rc_lookahead=40 / rc=2pass / mbtree=1 / bitrate=9295 / ratetol=1.0 / qcomp=0.60 / qpmin=0 / qpmax=69 / qpstep=4 / cplxblur=20.0 / qblur=0.5 / ip_ratio=1.40 / aq=1:1.00
  25. Language                                 : English
  26. Default                                  : No
  27. Forced                                   : No

  28. Audio
  29. ID                                       : 2
  30. Format                                   : AC-3
  31. Format/Info                              : Audio Coding 3
  32. Commercial name                          : Dolby Digital
  33. Codec ID                                 : A_AC3
  34. Duration                                 : 1 h 37 min
  35. Bit rate mode                            : Constant
  36. Bit rate                                 : 384 kb/s
  37. Channel(s)                               : 2 channels
  38. Channel layout                           : L R
  39. Sampling rate                            : 48.0 kHz
  40. Frame rate                               : 31.250 FPS (1536 SPF)
  41. Bit depth                                : 16 bits
  42. Compression mode                         : Lossy
  43. Stream size                              : 267 MiB (4%)
  44. Language                                 : Chinese
  45. Service kind                             : Complete Main
  46. Default                                  : Yes
  47. Forced                                   : No

  48. Text
  49. ID                                       : 3
  50. Format                                   : UTF-8
  51. Codec ID                                 : S_TEXT/UTF8
  52. Codec ID/Info                            : UTF-8 Plain Text
  53. Language                                 : English
  54. Default                                  : Yes
  55. Forced                                   : No
复制代码

愛到盡 End.of.Love.2009.1080p.BluRay.x264-MELiTE 6.56GB-2.png 愛到盡 End.of.Love.2009.1080p.BluRay.x264-MELiTE 6.56GB-3.png 愛到盡 End.of.Love.2009.1080p.BluRay.x264-MELiTE 6.56GB-4.png






回复

使用道具 举报

懒得打字嘛,点击右侧快捷回复 【右侧内容,后台自定义】
您需要登录后才可以回帖 登录 | 立即加入

本版积分规则

Archiver|小黑屋| 蓝光电影网 |网站地图

Copyright © 2021 Comsenz Inc. Powered by 蓝光电影网

蓝光电影网

本站内容由用户自主分享和转载自互联网,转载目的在于传递更多信息,并不代表本网赞同其观点和对其真实性负责。

如有侵权、违反国家法律政策行为,请联系我们,我们会第一时间及时清除和处理!

举报反馈邮箱:[email protected]

快速回复 返回顶部 返回列表