找回密码

蓝光电影网

查看: 362|回复: 3

[惊悚] 四十八小时/48小时 Went.The.Day.Well.1942.1080p.BluRay.X264-7SinS 6.56GB

[复制链接]
蓝光币
515
发表于 2020-4-25 11:54:46 | 显示全部楼层 |阅读模式
四十八小时/48小时 Went.The.Day.Well.1942.1080p.BluRay.X264-7SinS 6.56GB-1.png

译  名 四十八小时 / 48小时
片  名 Went the Day Well?
年  代 1942
产  地 英国
类  别 惊悚 / 战争
语  言 英语 / 德语
上映日期 1942-12-07
IMDb评分  7.5/10 from 2954 users
IMDb链接  https://www.imdb.com/title/tt0035429
豆瓣评分 6.6/10 from 57 users
豆瓣链接 https://movie.douban.com/subject/1865617/
片  长 92 分钟
导  演 Alberto Cavalcanti
编  剧 John Dighton
主  演 Leslie Banks
       C.V. France
       Valerie Taylor


标  签 英国 | 战争 | 英国电影 | 二战 | UK | 1942 | 1940s | 英國

简  介  

  The time for this sleepy village to awake and face its demons has firmly landed on its doorstep. The transformation of idyllic rural Englishness has to be tested to its limits, on their own and with time running out, even the softest of hearts have to learn the hardest rule; in order to survive, this little village of Bramley End must, with shocking and disturbing new qualities', adapt to their new surroundings. Frank and hard-hitting World War II cinema.
  1. Video
  2. ID                                       : 1
  3. Format                                   : AVC
  4. Format/Info                              : Advanced Video Codec
  5. Format profile                           : [email protected]
  6. Format settings                          : CABAC / 4 Ref Frames
  7. Format settings, CABAC                   : Yes
  8. Format settings, Reference frames        : 4 frames
  9. Codec ID                                 : V_MPEG4/ISO/AVC
  10. Duration                                 : 1 h 33 min
  11. Bit rate                                 : 9 433 kb/s
  12. Width                                    : 1 488 pixels
  13. Height                                   : 1 080 pixels
  14. Display aspect ratio                     : 1.378
  15. Frame rate mode                          : Constant
  16. Frame rate                               : 23.976 (23976/1000/189150) FPS
  17. Color space                              : YUV
  18. Chroma subsampling                       : 4:2:0
  19. Bit depth                                : 8 bits
  20. Scan type                                : Progressive
  21. Bits/(Pixel*Frame)                       : 0.245
  22. Stream size                              : 6.01 GiB (92%)
  23. Writing library                          : x264 core 116 r2019 9cc407d
  24. Encoding settings                        : cabac=1 / ref=4 / deblock=1:0:0 / analyse=0x3:0x133 / me=umh / subme=7 / psy=1 / psy_rd=1.00:0.00 / mixed_ref=1 / me_range=16 / chroma_me=1 / trellis=1 / 8x8dct=1 / cqm=0 / deadzone=21,11 / fast_pskip=0 / chroma_qp_offset=-2 / threads=12 / sliced_threads=0 / nr=0 / decimate=1 / interlaced=0 / bluray_compat=0 / constrained_intra=0 / bframes=3 / b_pyramid=2 / b_adapt=1 / b_bias=0 / direct=1 / weightb=1 / open_gop=0 / weightp=2 / keyint=250 / keyint_min=23 / scenecut=40 / intra_refresh=0 / rc_lookahead=40 / rc=2pass / mbtree=1 / bitrate=9433 / ratetol=1.0 / qcomp=0.60 / qpmin=0 / qpmax=69 / qpstep=4 / cplxblur=20.0 / qblur=0.5 / ip_ratio=1.40 / aq=1:1.00
  25. Language                                 : English
  26. Default                                  : Yes
  27. Forced                                   : No

  28. Audio
  29. ID                                       : 2
  30. Format                                   : AC-3
  31. Format/Info                              : Audio Coding 3
  32. Commercial name                          : Dolby Digital
  33. Codec ID                                 : A_AC3
  34. Duration                                 : 1 h 33 min
  35. Bit rate mode                            : Constant
  36. Bit rate                                 : 640 kb/s
  37. Channel(s)                               : 2 channels
  38. Channel layout                           : L R
  39. Sampling rate                            : 48.0 kHz
  40. Frame rate                               : 31.250 FPS (1536 SPF)
  41. Bit depth                                : 16 bits
  42. Compression mode                         : Lossy
  43. Stream size                              : 427 MiB (6%)
  44. Language                                 : English
  45. Service kind                             : Complete Main
  46. Default                                  : Yes
  47. Forced                                   : No
复制代码

四十八小时/48小时 Went.The.Day.Well.1942.1080p.BluRay.X264-7SinS 6.56GB-2.png 四十八小时/48小时 Went.The.Day.Well.1942.1080p.BluRay.X264-7SinS 6.56GB-3.png 四十八小时/48小时 Went.The.Day.Well.1942.1080p.BluRay.X264-7SinS 6.56GB-4.png






回复

使用道具 举报

蓝光币
336
发表于 2020-4-25 23:34:03 | 显示全部楼层

楼主太厉害了!楼主,电影应该很好看我觉得蓝光电影网真是个好地方!
回复 支持 反对

使用道具 举报

懒得打字嘛,点击右侧快捷回复 【右侧内容,后台自定义】
您需要登录后才可以回帖 登录 | 立即加入

本版积分规则

Archiver|小黑屋| 蓝光电影网 |网站地图

Copyright © 2021 Comsenz Inc. Powered by 蓝光电影网

蓝光电影网

本站内容由用户自主分享和转载自互联网,转载目的在于传递更多信息,并不代表本网赞同其观点和对其真实性负责。

如有侵权、违反国家法律政策行为,请联系我们,我们会第一时间及时清除和处理!

举报反馈邮箱:[email protected]

快速回复 返回顶部 返回列表