找回密码

蓝光电影网

查看: 220|回复: 1

[剧情] 旁白 Voice.Over.1981.1080p.BluRay.x264-CiNEFiLE 6.56GB

[复制链接]
蓝光币
519
发表于 2020-4-25 11:56:06 | 显示全部楼层 |阅读模式
旁白 Voice.Over.1981.1080p.BluRay.x264-CiNEFiLE 6.56GB-1.png

译  名 旁白
片  名 Voice Over
年  代 1983
产  地 英国
类  别 剧情
语  言 英语
上映日期 1983
IMDb评分  6.8/10 from 69 users
IMDb链接  https://www.imdb.com/title/tt0162757
豆瓣评分 0/10 from 0 users
豆瓣链接 https://movie.douban.com/subject/5099626/
片  长 105 分钟
导  演 Christopher Monger
编  剧 Christopher Monger
主  演 伊恩·麦克尼奇 Ian McNeice
       John Cassady


标  签 英国 | BFI | 1983 | ? | 英国电影 | 欧洲电影 | 我的电影1-2 | 。

简  介  

  片  长 107 Mins
  导  演 克里斯托弗·蒙格 Christopher Monger
  主  演 伊恩·麦克尼奇 Ian McNeice ... 'Fats' Bannerman
  Bish Nethercote ... Bitch / Elizabeth
  John Cassady ... F.X. Jones
  Sarah Martin ... Celia
  David Pearce ... Frank
  Stuart Hutton ... Doctor
  Eira Moore ... PAP Boss
  Paul Chandler ... RDOV Boss
  Carol Owen ... Bitch's friend
  Mike Stubbs ... Yob on underground
  Jon Groome ... Capt. Thompson
  Laurie McFadden ... Woman at PAP party
  Simon Davies ... Man at PAP party
  Chris Abrahams ... Man at PAP party
  Paul Jackson ... Man at PAP party
  
  简  介
  'Fats' Bannerman is enjoying success as the writer and presenter of Thus Engaged, a romantic radio serial about the lives and loves of a Regency heroine. But when grim reality violently intrudes into Fats' life, his frail fantasies become unbalanced and his ability to separate fact from fiction breaks down, with devastating consequences. Featuring a compelling central performance from the great British screen actor Ian McNeice, this controversial film from award-winning Hollywood director Christopher Monger caused a sensation upon its original release.
  1. Video
  2. ID                                       : 1
  3. Format                                   : AVC
  4. Format/Info                              : Advanced Video Codec
  5. Format profile                           : [email protected]
  6. Format settings                          : CABAC / 4 Ref Frames
  7. Format settings, CABAC                   : Yes
  8. Format settings, Reference frames        : 4 frames
  9. Muxing mode                              : Header stripping
  10. Codec ID                                 : V_MPEG4/ISO/AVC
  11. Duration                                 : 1 h 47 min
  12. Bit rate                                 : 8 062 kb/s
  13. Width                                    : 1 440 pixels
  14. Height                                   : 1 080 pixels
  15. Display aspect ratio                     : 4:3
  16. Frame rate mode                          : Constant
  17. Frame rate                               : 23.976 FPS
  18. Color space                              : YUV
  19. Chroma subsampling                       : 4:2:0
  20. Bit depth                                : 8 bits
  21. Scan type                                : Progressive
  22. Bits/(Pixel*Frame)                       : 0.216
  23. Stream size                              : 5.95 GiB (91%)
  24. Writing library                          : x264 core 120 r2120 0c7dab9
  25. Encoding settings                        : cabac=1 / ref=4 / deblock=1:0:0 / analyse=0x3:0x133 / me=umh / subme=7 / psy=1 / psy_rd=1.00:0.00 / mixed_ref=1 / me_range=16 / chroma_me=1 / trellis=1 / 8x8dct=1 / cqm=0 / deadzone=21,11 / fast_pskip=0 / chroma_qp_offset=-2 / threads=6 / sliced_threads=0 / nr=0 / decimate=1 / interlaced=0 / bluray_compat=0 / constrained_intra=0 / bframes=3 / b_pyramid=2 / b_adapt=2 / b_bias=0 / direct=3 / weightb=1 / open_gop=0 / weightp=2 / keyint=250 / keyint_min=23 / scenecut=40 / intra_refresh=0 / rc_lookahead=50 / rc=2pass / mbtree=1 / bitrate=8062 / ratetol=1.0 / qcomp=0.60 / qpmin=0 / qpmax=69 / qpstep=4 / cplxblur=20.0 / qblur=0.5 / ip_ratio=1.40 / aq=1:1.00
  26. Language                                 : English
  27. Default                                  : Yes
  28. Forced                                   : No

  29. Audio
  30. ID                                       : 2
  31. Format                                   : AC-3
  32. Format/Info                              : Audio Coding 3
  33. Commercial name                          : Dolby Digital
  34. Muxing mode                              : Header stripping
  35. Codec ID                                 : A_AC3
  36. Duration                                 : 1 h 47 min
  37. Bit rate mode                            : Constant
  38. Bit rate                                 : 640 kb/s
  39. Channel(s)                               : 2 channels
  40. Channel layout                           : L R
  41. Sampling rate                            : 48.0 kHz
  42. Frame rate                               : 31.250 FPS (1536 SPF)
  43. Bit depth                                : 16 bits
  44. Compression mode                         : Lossy
  45. Stream size                              : 494 MiB (7%)
  46. Language                                 : English
  47. Service kind                             : Complete Main
  48. Default                                  : Yes
  49. Forced                                   : No

  50. Text
  51. ID                                       : 3
  52. Format                                   : UTF-8
  53. Codec ID                                 : S_TEXT/UTF8
  54. Codec ID/Info                            : UTF-8 Plain Text
  55. Language                                 : English
  56. Default                                  : No
  57. Forced                                   : No
复制代码

旁白 Voice.Over.1981.1080p.BluRay.x264-CiNEFiLE 6.56GB-2.png 旁白 Voice.Over.1981.1080p.BluRay.x264-CiNEFiLE 6.56GB-3.png 旁白 Voice.Over.1981.1080p.BluRay.x264-CiNEFiLE 6.56GB-4.png






回复

使用道具 举报

懒得打字嘛,点击右侧快捷回复 【右侧内容,后台自定义】
您需要登录后才可以回帖 登录 | 立即加入

本版积分规则

Archiver|小黑屋| 蓝光电影网 |网站地图

Copyright © 2021 Comsenz Inc. Powered by 蓝光电影网

蓝光电影网

本站内容由用户自主分享和转载自互联网,转载目的在于传递更多信息,并不代表本网赞同其观点和对其真实性负责。

如有侵权、违反国家法律政策行为,请联系我们,我们会第一时间及时清除和处理!

举报反馈邮箱:[email protected]

快速回复 返回顶部 返回列表