找回密码

蓝光电影网

查看: 255|回复: 1

[纪录] 维达·沙宣 Vidal.Sassoon.The.Movie.2010.1080p.iNTERNAL.BluRay.x264-MOOVEE 9.84GB

[复制链接]
蓝光币
519
发表于 2020-4-25 11:57:10 | 显示全部楼层 |阅读模式
维达·沙宣 Vidal.Sassoon.The.Movie.2010.1080p.iNTERNAL.BluRay.x264-MOOVEE 9.84GB-1.png

译  名 维达·沙宣
片  名 Vidal Sassoon: The Movie
年  代 2010
产  地 美国
类  别 记载片
语  言 英语
上映日期 2010
IMDb评分  6.5/10 from 230 users
IMDb链接  https://www.imdb.com/title/tt1649433
豆瓣评分 0/10 from 0 users
豆瓣链接 https://movie.douban.com/subject/4840373/
导  演 Craig Teper
编  剧 Craig Teper
主  演 Mary Quant
       Ronnie Sassoon ]


标  签 记载片 | 時尚 | 时髦 | sassoon | 美国 | vidal | documentary | 2010s

简  介  

  也许每小我都晓得“沙宣”这个牌子的洗发水,也晓得它典范的多少发式,但相信很少人会晓得“沙宣”实在是一小我的名字,而且是一位顶尖的发型师的名字;就算晓得这些,也一定不晓得维达?沙宣实在的生活。
  这部记载片为你报告了这位传奇发型师不为人知的各个方面。
  它讲的不是洗发水,而是洗头仔用一把铰剪改变天下的传奇故事。由于母亲一个奥秘的梦,维达?沙宣在14岁便做了洗头仔,多年后,天生异禀的他为发型界带来了一次“大地震”,以修建美学剪出梦一样的多少发式。最典范的沙宣,要数数十年来耐久不衰的波波头、为关南施打造的新颖look,以及《魔鬼魅婴》里米亚?法罗一头发亮的短发。沙宣可谓是超越时代,束缚了女性的三千懊恼丝。
  这部记载片的拍摄周期长达3年,访问了伦敦、纽约以及洛杉矶,并史无前例地采访了维达?沙宣本人、他之前的同事、家人、与他打仗过的记者等等。这是沙宣唯一的列传片,也是时髦潮水的一次认祖归宗——发型、化装、设想、修建、电影……沙宣的影响力真的无处不在。
  1. Video
  2. ID                                       : 2
  3. Format                                   : AVC
  4. Format/Info                              : Advanced Video Codec
  5. Format profile                           : [email protected]
  6. Format settings                          : CABAC / 4 Ref Frames
  7. Format settings, CABAC                   : Yes
  8. Format settings, Reference frames        : 4 frames
  9. Codec ID                                 : V_MPEG4/ISO/AVC
  10. Duration                                 : 1 h 33 min
  11. Bit rate                                 : 13.6 Mb/s
  12. Width                                    : 1 920 pixels
  13. Height                                   : 1 080 pixels
  14. Display aspect ratio                     : 16:9
  15. Frame rate mode                          : Constant
  16. Frame rate                               : 23.976 (24000/1001/189150) FPS
  17. Color space                              : YUV
  18. Chroma subsampling                       : 4:2:0
  19. Bit depth                                : 8 bits
  20. Scan type                                : Progressive
  21. Bits/(Pixel*Frame)                       : 0.273
  22. Stream size                              : 8.66 GiB (88%)
  23. Writing library                          : x264 core 132 r2310 76a5c3a
  24. Encoding settings                        : cabac=1 / ref=4 / deblock=1:0:0 / analyse=0x3:0x133 / me=umh / subme=8 / psy=1 / psy_rd=1.00:0.00 / mixed_ref=1 / me_range=16 / chroma_me=1 / trellis=1 / 8x8dct=1 / cqm=0 / deadzone=21,11 / fast_pskip=0 / chroma_qp_offset=-2 / threads=18 / lookahead_threads=3 / sliced_threads=0 / nr=0 / decimate=1 / interlaced=0 / bluray_compat=0 / constrained_intra=0 / bframes=3 / b_pyramid=2 / b_adapt=1 / b_bias=0 / direct=1 / weightb=1 / open_gop=0 / weightp=2 / keyint=250 / keyint_min=23 / scenecut=40 / intra_refresh=0 / rc_lookahead=40 / rc=2pass / mbtree=1 / bitrate=13572 / ratetol=1.0 / qcomp=0.60 / qpmin=0 / qpmax=69 / qpstep=4 / cplxblur=20.0 / qblur=0.5 / ip_ratio=1.40 / aq=1:1.00
  25. Language                                 : English
  26. Default                                  : Yes
  27. Forced                                   : No

  28. Audio
  29. ID                                       : 1
  30. Format                                   : DTS
  31. Format/Info                              : Digital Theater Systems
  32. Codec ID                                 : A_DTS
  33. Duration                                 : 1 h 33 min
  34. Bit rate mode                            : Constant
  35. Bit rate                                 : 1 509 kb/s
  36. Channel(s)                               : 6 channels
  37. Channel layout                           : C L R Ls Rs LFE
  38. Sampling rate                            : 48.0 kHz
  39. Frame rate                               : 93.750 FPS (512 SPF)
  40. Bit depth                                : 24 bits
  41. Compression mode                         : Lossy
  42. Stream size                              : 1 009 MiB (10%)
  43. Default                                  : Yes
  44. Forced                                   : No
复制代码

维达·沙宣 Vidal.Sassoon.The.Movie.2010.1080p.iNTERNAL.BluRay.x264-MOOVEE 9.84GB-2.png 维达·沙宣 Vidal.Sassoon.The.Movie.2010.1080p.iNTERNAL.BluRay.x264-MOOVEE 9.84GB-3.png 维达·沙宣 Vidal.Sassoon.The.Movie.2010.1080p.iNTERNAL.BluRay.x264-MOOVEE 9.84GB-4.png






回复

使用道具 举报

懒得打字嘛,点击右侧快捷回复 【右侧内容,后台自定义】
您需要登录后才可以回帖 登录 | 立即加入

本版积分规则

Archiver|小黑屋| 蓝光电影网 |网站地图

Copyright © 2021 Comsenz Inc. Powered by 蓝光电影网

蓝光电影网

本站内容由用户自主分享和转载自互联网,转载目的在于传递更多信息,并不代表本网赞同其观点和对其真实性负责。

如有侵权、违反国家法律政策行为,请联系我们,我们会第一时间及时清除和处理!

举报反馈邮箱:[email protected]

快速回复 返回顶部 返回列表