找回密码

蓝光电影网

查看: 301|回复: 1

[纪录] 爱情的模样 The.Love.We.Make.2011.1080p.BluRay.x264-SOUNDWAVE 6.55GB

[复制链接]
蓝光币
515
发表于 2020-4-25 12:00:06 | 显示全部楼层 |阅读模式
恋爱的样子 The.Love.We.Make.2011.1080p.BluRay.x264-SOUNDWAVE 6.55GB-1.png

译  名 恋爱的样子
片  名 The Love We Make
年  代 2011
产  地 美国
类  别 记载片
语  言 英语
上映日期 2011-09-10(美国)
IMDb评分  6.5/10 from 230 users
IMDb链接  https://www.imdb.com/title/tt2006276
豆瓣评分 7.6/10 from 104 users
豆瓣链接 https://movie.douban.com/subject/6805931/
片  长 89分钟
导  演 Bradley Kaplan / 阿尔伯特·梅索斯 Albert Maysles
主  演 大卫·鲍伊 David Bowie
       比尔·克林顿 Bill Clinton
       莱昂纳多·迪卡普里奥 Leonardo DiCaprio
       杰斯 Jay-Z
       保罗·麦卡特尼 Paul McCartney


标  签 记载片 | LeonardoDiCaprio | 美国 | DavidBowie | 莱昂纳多·迪卡普里奥 | 美国电影 | 2011 | PaulMcCartney

简  介  

  On the morning of September 11, 2001, Paul McCartney was in New York City on an airport runway waiting to fly to Britain. As he absorbed the news of the unfolding tragedy, he wondered, “What can I do?” The answer, of course, lay in music.
  McCartney reached out to master documentarian and long-time friend Albert Maysles, inviting Maysles to document his personal experiences on 16mm black and white film, a format seldom used in the digital age but of proven endurance and artistic quality. Over several weeks in October 2001, Maysles’ camera followed McCartney as he prepared for The Concert for New York City, a benefit he helped organize to uplift New York City during this period of uncertainty and vulnerability. The footage went unseen for years, requiring the passage of time to be put in perspective. Now, ten years later, Maysles, his directing partner Bradley Kaplan and editor Ian Markiewicz have emerged with an intimate work that explores the role of art and artists in a time of crisis.
  1. Video
  2. ID                                       : 1
  3. Format                                   : AVC
  4. Format/Info                              : Advanced Video Codec
  5. Format profile                           : [email protected]
  6. Format settings                          : CABAC / 4 Ref Frames
  7. Format settings, CABAC                   : Yes
  8. Format settings, Reference frames        : 4 frames
  9. Codec ID                                 : V_MPEG4/ISO/AVC
  10. Duration                                 : 1 h 33 min
  11. Bit rate                                 : 8 510 kb/s
  12. Width                                    : 1 440 pixels
  13. Height                                   : 1 080 pixels
  14. Display aspect ratio                     : 4:3
  15. Frame rate mode                          : Constant
  16. Frame rate                               : 23.976 (23976/1000/189150) FPS
  17. Color space                              : YUV
  18. Chroma subsampling                       : 4:2:0
  19. Bit depth                                : 8 bits
  20. Scan type                                : Progressive
  21. Bits/(Pixel*Frame)                       : 0.228
  22. Stream size                              : 5.43 GiB (83%)
  23. Writing library                          : x264 core 120 r2120 0c7dab9
  24. Encoding settings                        : cabac=1 / ref=4 / deblock=1:0:0 / analyse=0x3:0x133 / me=umh / subme=7 / psy=1 / psy_rd=1.00:0.00 / mixed_ref=1 / me_range=16 / chroma_me=1 / trellis=1 / 8x8dct=1 / cqm=0 / deadzone=21,11 / fast_pskip=0 / chroma_qp_offset=-2 / threads=12 / sliced_threads=0 / nr=0 / decimate=1 / interlaced=0 / bluray_compat=0 / constrained_intra=0 / bframes=3 / b_pyramid=2 / b_adapt=2 / b_bias=0 / direct=3 / weightb=1 / open_gop=0 / weightp=2 / keyint=250 / keyint_min=23 / scenecut=40 / intra_refresh=0 / rc_lookahead=50 / rc=2pass / mbtree=1 / bitrate=8510 / ratetol=1.0 / qcomp=0.60 / qpmin=0 / qpmax=69 / qpstep=4 / cplxblur=20.0 / qblur=0.5 / ip_ratio=1.40 / aq=1:1.00
  25. Language                                 : English
  26. Default                                  : Yes
  27. Forced                                   : No

  28. Audio
  29. ID                                       : 2
  30. Format                                   : DTS
  31. Format/Info                              : Digital Theater Systems
  32. Codec ID                                 : A_DTS
  33. Duration                                 : 1 h 33 min
  34. Bit rate mode                            : Constant
  35. Bit rate                                 : 1 509 kb/s
  36. Channel(s)                               : 6 channels
  37. Channel layout                           : C L R Ls Rs LFE
  38. Sampling rate                            : 48.0 kHz
  39. Frame rate                               : 93.750 FPS (512 SPF)
  40. Bit depth                                : 24 bits
  41. Compression mode                         : Lossy
  42. Stream size                              : 1 012 MiB (15%)
  43. Language                                 : English
  44. Default                                  : Yes
  45. Forced                                   : No
复制代码

恋爱的样子 The.Love.We.Make.2011.1080p.BluRay.x264-SOUNDWAVE 6.55GB-2.png 恋爱的样子 The.Love.We.Make.2011.1080p.BluRay.x264-SOUNDWAVE 6.55GB-3.png 恋爱的样子 The.Love.We.Make.2011.1080p.BluRay.x264-SOUNDWAVE 6.55GB-4.png






回复

使用道具 举报

懒得打字嘛,点击右侧快捷回复 【右侧内容,后台自定义】
您需要登录后才可以回帖 登录 | 立即加入

本版积分规则

Archiver|小黑屋| 蓝光电影网 |网站地图

Copyright © 2021 Comsenz Inc. Powered by 蓝光电影网

蓝光电影网

本站内容由用户自主分享和转载自互联网,转载目的在于传递更多信息,并不代表本网赞同其观点和对其真实性负责。

如有侵权、违反国家法律政策行为,请联系我们,我们会第一时间及时清除和处理!

举报反馈邮箱:[email protected]

快速回复 返回顶部 返回列表