找回密码

蓝光电影网

查看: 415|回复: 1

[冒险] 绝境求生/荒漠恩仇记 Sands.Of.The.Kalahari.1965.1080p.BluRay.x264-Japhson 7.64GB

[复制链接]
蓝光币
519
发表于 2020-4-25 12:00:56 | 显示全部楼层 |阅读模式
绝境求生/荒凉恩怨记 Sands.Of.The.Kalahari.1965.1080p.BluRay.x264-Japhson 7.64GB-1.png

译  名 绝境求生 / 荒凉恩怨记
片  名 Sands of the Kalahari
年  代 1965
产  地 英国
类  别 冒险
语  言 英语
上映日期 1965-11-24(纽约)
IMDb评分  6.9/10 from 1096 users
IMDb链接  https://www.imdb.com/title/tt0059675
豆瓣评分 0/10 from 0 users
豆瓣链接 https://movie.douban.com/subject/6719199/
片  长 119分钟
导  演 Cy Endfield
编  剧 赛·恩菲尔德 Cy Endfield
主  演 Stuart Whitman


标  签 英国 | 历险 | 1965 | 探险 | 剧情

简  介  

  在卡拉哈里沙漠一架小型飞机坠毁后,七名乘客中的一个决议,假如他能消灭其他人,他的保存机遇就会增加。
  1. Video
  2. ID                                       : 1
  3. Format                                   : AVC
  4. Format/Info                              : Advanced Video Codec
  5. Format profile                           : [email protected]
  6. Format settings                          : CABAC / 5 Ref Frames
  7. Format settings, CABAC                   : Yes
  8. Format settings, Reference frames        : 5 frames
  9. Muxing mode                              : Header stripping
  10. Codec ID                                 : V_MPEG4/ISO/AVC
  11. Duration                                 : 1 h 59 min
  12. Bit rate                                 : 8 972 kb/s
  13. Width                                    : 1 920 pixels
  14. Height                                   : 816 pixels
  15. Display aspect ratio                     : 2.35:1
  16. Frame rate mode                          : Constant
  17. Frame rate                               : 23.976 (24000/1001/189150) FPS
  18. Color space                              : YUV
  19. Chroma subsampling                       : 4:2:0
  20. Bit depth                                : 8 bits
  21. Scan type                                : Progressive
  22. Bits/(Pixel*Frame)                       : 0.239
  23. Stream size                              : 7.33 GiB (96%)
  24. Writing library                          : x264 core 116 r2019 9cc407d
  25. Encoding settings                        : cabac=1 / ref=5 / deblock=1:-1:-1 / analyse=0x3:0x113 / me=umh / subme=7 / psy=1 / psy_rd=1.00:0.00 / mixed_ref=1 / me_range=16 / chroma_me=1 / trellis=1 / 8x8dct=1 / cqm=0 / deadzone=21,11 / fast_pskip=1 / chroma_qp_offset=-2 / threads=12 / sliced_threads=0 / nr=0 / decimate=1 / interlaced=0 / bluray_compat=0 / constrained_intra=0 / bframes=3 / b_pyramid=2 / b_adapt=2 / b_bias=0 / direct=3 / weightb=1 / open_gop=0 / weightp=2 / keyint=250 / keyint_min=23 / scenecut=40 / intra_refresh=0 / rc_lookahead=40 / rc=2pass / mbtree=1 / bitrate=8972 / ratetol=1.0 / qcomp=0.60 / qpmin=0 / qpmax=69 / qpstep=4 / cplxblur=20.0 / qblur=0.5 / vbv_maxrate=50000 / vbv_bufsize=50000 / nal_hrd=none / ip_ratio=1.40 / aq=1:1.00
  26. Language                                 : English
  27. Default                                  : Yes
  28. Forced                                   : Yes

  29. Audio
  30. ID                                       : 2
  31. Format                                   : AC-3
  32. Format/Info                              : Audio Coding 3
  33. Commercial name                          : Dolby Digital
  34. Muxing mode                              : Header stripping
  35. Codec ID                                 : A_AC3
  36. Duration                                 : 1 h 59 min
  37. Bit rate mode                            : Constant
  38. Bit rate                                 : 192 kb/s
  39. Channel(s)                               : 2 channels
  40. Channel layout                           : L R
  41. Sampling rate                            : 48.0 kHz
  42. Frame rate                               : 31.250 FPS (1536 SPF)
  43. Bit depth                                : 16 bits
  44. Compression mode                         : Lossy
  45. Stream size                              : 164 MiB (2%)
  46. Language                                 : English
  47. Service kind                             : Complete Main
  48. Default                                  : Yes
  49. Forced                                   : Yes
复制代码

绝境求生/荒凉恩怨记 Sands.Of.The.Kalahari.1965.1080p.BluRay.x264-Japhson 7.64GB-2.png 绝境求生/荒凉恩怨记 Sands.Of.The.Kalahari.1965.1080p.BluRay.x264-Japhson 7.64GB-3.png 绝境求生/荒凉恩怨记 Sands.Of.The.Kalahari.1965.1080p.BluRay.x264-Japhson 7.64GB-4.png






回复

使用道具 举报

懒得打字嘛,点击右侧快捷回复 【右侧内容,后台自定义】
您需要登录后才可以回帖 登录 | 立即加入

本版积分规则

Archiver|小黑屋| 蓝光电影网 |网站地图

Copyright © 2021 Comsenz Inc. Powered by 蓝光电影网

蓝光电影网

本站内容由用户自主分享和转载自互联网,转载目的在于传递更多信息,并不代表本网赞同其观点和对其真实性负责。

如有侵权、违反国家法律政策行为,请联系我们,我们会第一时间及时清除和处理!

举报反馈邮箱:[email protected]

快速回复 返回顶部 返回列表