找回密码

蓝光电影网

查看: 320|回复: 2

[惊悚] 黑暗灵魂 Dark.Soul.2010.1080p.BluRay.x264-WASTE 6.56GB

[复制链接]
蓝光币
515
发表于 2020-4-25 12:17:24 | 显示全部楼层 |阅读模式
黑暗灵魂 Dark.Soul.2010.1080p.BluRay.x264-WASTE 6.56GB-1.png

译  名 黑暗灵魂
片  名 M?rke sjeler
年  代 2010
产  地 挪威 / 法国
类  别 惊悚 / 可骇
语  言 挪威语
上映日期 2010
IMDb评分  5.1/10 from 1664 users
IMDb链接  https://www.imdb.com/title/tt1617145
豆瓣评分 4.3/10 from 150 users
豆瓣链接 https://movie.douban.com/subject/5154839/
片  长 95 分钟
导  演 César Ducasse / Mathieu Peteul
编  剧 César Ducasse
主  演 Morten Rud?
       Kyrre Haugen Sydness
       Ida Elise Broch


标  签 可骇 | 挪威 | 惊悚 | 法国 | 僵尸 | 活死人 | 欧洲 | 2010

简  介  

  在一个阴沉的日子里,青春靓丽的女孩乔安娜·瑞文(Johanna Gustavsson 饰)单独慢跑,成果遭到传着工作服、带着防尘面具的疯狂男人的攻击。一番徒劳的抵抗事后,乔安娜终极被电钻钻破头颅身亡。未几以后,她的尸身被警方发现,随即送往法医处观察。可是,这个灭亡很久的女孩居然幽幽新生,并单独返回家中。乔安娜的父亲默顿(Morten Ruda 饰)并不晓得女儿明天的遭受,直到看见乔安娜暴露怎样可骇的面庞才大为震动。
  在接下来的日子里,类似钻头案件不竭发生,而且遇害者无一破例都活转过来,却已酿成毫蒙昧觉的活死人。默顿拒绝让女儿接管治疗,而是起头单独踏上寻觅凶手的门路……
  1. Video
  2. ID                                       : 1
  3. Format                                   : AVC
  4. Format/Info                              : Advanced Video Codec
  5. Format profile                           : [email protected]
  6. Format settings                          : CABAC / 4 Ref Frames
  7. Format settings, CABAC                   : Yes
  8. Format settings, Reference frames        : 4 frames
  9. Muxing mode                              : Header stripping
  10. Codec ID                                 : V_MPEG4/ISO/AVC
  11. Duration                                 : 1 h 34 min
  12. Bit rate                                 : 8 383 kb/s
  13. Width                                    : 1 920 pixels
  14. Height                                   : 1 080 pixels
  15. Display aspect ratio                     : 16:9
  16. Frame rate mode                          : Constant
  17. Frame rate                               : 25.000 FPS
  18. Color space                              : YUV
  19. Chroma subsampling                       : 4:2:0
  20. Bit depth                                : 8 bits
  21. Scan type                                : Progressive
  22. Bits/(Pixel*Frame)                       : 0.162
  23. Stream size                              : 5.43 GiB (83%)
  24. Writing library                          : x264 core 118 r2085 8a62835
  25. Encoding settings                        : cabac=1 / ref=4 / deblock=1:0:0 / analyse=0x3:0x133 / me=umh / subme=7 / psy=1 / psy_rd=1.00:0.00 / mixed_ref=1 / me_range=16 / chroma_me=1 / trellis=1 / 8x8dct=1 / cqm=0 / deadzone=21,11 / fast_pskip=0 / chroma_qp_offset=-2 / threads=9 / sliced_threads=0 / nr=0 / decimate=1 / interlaced=0 / bluray_compat=0 / constrained_intra=0 / bframes=3 / b_pyramid=2 / b_adapt=1 / b_bias=0 / direct=1 / weightb=1 / open_gop=0 / weightp=2 / keyint=250 / keyint_min=25 / scenecut=40 / intra_refresh=0 / rc_lookahead=40 / rc=2pass / mbtree=1 / bitrate=8383 / ratetol=1.0 / qcomp=0.60 / qpmin=0 / qpmax=69 / qpstep=4 / cplxblur=20.0 / qblur=0.5 / ip_ratio=1.40 / aq=1:1.00
  26. Language                                 : Norwegian
  27. Default                                  : Yes
  28. Forced                                   : No

  29. Audio
  30. ID                                       : 2
  31. Format                                   : DTS
  32. Format/Info                              : Digital Theater Systems
  33. Muxing mode                              : Header stripping
  34. Codec ID                                 : A_DTS
  35. Duration                                 : 1 h 34 min
  36. Bit rate mode                            : Constant
  37. Bit rate                                 : 1 509 kb/s
  38. Channel(s)                               : 6 channels
  39. Channel layout                           : C L R Ls Rs LFE
  40. Sampling rate                            : 48.0 kHz
  41. Frame rate                               : 93.750 FPS (512 SPF)
  42. Bit depth                                : 24 bits
  43. Compression mode                         : Lossy
  44. Stream size                              : 1.00 GiB (15%)
  45. Language                                 : Norwegian
  46. Default                                  : Yes
  47. Forced                                   : No

  48. Text
  49. ID                                       : 3
  50. Format                                   : UTF-8
  51. Codec ID                                 : S_TEXT/UTF8
  52. Codec ID/Info                            : UTF-8 Plain Text
  53. Language                                 : English
  54. Default                                  : Yes
  55. Forced                                   : No
复制代码

黑暗灵魂 Dark.Soul.2010.1080p.BluRay.x264-WASTE 6.56GB-2.png 黑暗灵魂 Dark.Soul.2010.1080p.BluRay.x264-WASTE 6.56GB-3.png 黑暗灵魂 Dark.Soul.2010.1080p.BluRay.x264-WASTE 6.56GB-4.png






回复

使用道具 举报

蓝光币
672
发表于 2020-4-26 18:13:49 | 显示全部楼层

这个帖子不回对不起自己!我想我是一天也不能离开蓝光电影网
回复 支持 反对

使用道具 举报

懒得打字嘛,点击右侧快捷回复 【右侧内容,后台自定义】
您需要登录后才可以回帖 登录 | 立即加入

本版积分规则

Archiver|小黑屋| 蓝光电影网 |网站地图

Copyright © 2021 Comsenz Inc. Powered by 蓝光电影网

蓝光电影网

本站内容由用户自主分享和转载自互联网,转载目的在于传递更多信息,并不代表本网赞同其观点和对其真实性负责。

如有侵权、违反国家法律政策行为,请联系我们,我们会第一时间及时清除和处理!

举报反馈邮箱:[email protected]

快速回复 返回顶部 返回列表