找回密码

蓝光电影网

查看: 172|回复: 1

[喜剧] 朱迪之夏/朱迪·穆迪和不太糟糕的夏天 Judy.Moody.and.the.Not.Bummer.Summer.2011.1080p.BluRay.x264-Counterfeit 6.55GB

[复制链接]
蓝光币
509
发表于 2020-4-25 12:38:05 | 显示全部楼层 |阅读模式
朱迪之夏/朱迪·穆迪和不太糟糕的炎天 Judy.Moody.and.the.Not.Bummer.Summer.2011.1080p.BluRay.x264-Counterfeit 6.55GB-1.png

译  名 朱迪之夏 / 朱迪·穆迪和不太糟糕的炎天 / 朱迪穆迪和不太糟糕的炎天(台)
片  名 Judy Moody and the Not Bummer Summer
年  代 2011
产  地 美国
类  别 笑剧
语  言 英语
上映日期 2011-06-10(美国)
IMDb评分  4.2/10 from 2801 users
IMDb链接  https://www.imdb.com/title/tt1547230
豆瓣评分 5.9/10 from 210 users
豆瓣链接 https://movie.douban.com/subject/4146497/
片  长 91分钟
导  演 John Schultz
编  剧 Megan McDonald / Kathy Waugh
主  演 Janet Varney
       海瑟·格拉汉姆 Heather Graham
       Jaleel White
       Parris Mosteller
       Taylar Hender


标  签 笑剧 | 美国电影 | 美国 | 儿童 | 2011 | Disney | 朱迪之夏 | 青春

简  介  

  这个暑假,三年级的小姑娘朱迪·穆迪决议要过得刺激一点,她希望具有一个最爽的、史无前例的暑假。她和自己的好朋友洛奇和艾米已经商量好了怎样在一路冒险。
  可是天不遂人愿,暑假到了,洛奇和艾米却双双有了新的放置。洛奇去了马戏团,在那边和小丑作伴。固然,洛奇去马戏团并不是去玩闹的,而是去进修训狮子。艾米的暑假更加刺激一些,她和自己的妈妈一路去了婆罗洲,去那边探访陈腐的部落、潜水、游玩。好朋友走掉了,朱迪·穆迪只能和自己的看不扎眼的傻乎乎的弟弟斯汀科呆在一路。好歹还有自己第二好的朋友弗兰克·皮尔,要否则这个暑假就糟透了。
  工作忽然起了变化,朱迪·穆迪的爸爸妈妈要去加州,为了不让孩子独安闲家,他们找来了奥帕尔姑妈陪朱迪。可是朱迪却历来没有见过她——看上去这个无聊的暑假就要变得更加无聊和糟糕了。朱迪·穆迪要怎样拯救自己的暑假呢?
  1. Video
  2. ID                                       : 1
  3. Format                                   : AVC
  4. Format/Info                              : Advanced Video Codec
  5. Format profile                           : [email protected]
  6. Format settings                          : CABAC / 4 Ref Frames
  7. Format settings, CABAC                   : Yes
  8. Format settings, Reference frames        : 4 frames
  9. Codec ID                                 : V_MPEG4/ISO/AVC
  10. Duration                                 : 1 h 31 min
  11. Bit rate                                 : 8 758 kb/s
  12. Width                                    : 1 920 pixels
  13. Height                                   : 1 040 pixels
  14. Display aspect ratio                     : 1.85:1
  15. Frame rate mode                          : Constant
  16. Frame rate                               : 23.976 (24000/1001/189150) FPS
  17. Color space                              : YUV
  18. Chroma subsampling                       : 4:2:0
  19. Bit depth                                : 8 bits
  20. Scan type                                : Progressive
  21. Bits/(Pixel*Frame)                       : 0.183
  22. Stream size                              : 5.46 GiB (83%)
  23. Writing library                          : x264 core 118 r2085 8a62835
  24. Encoding settings                        : cabac=1 / ref=4 / deblock=1:0:0 / analyse=0x3:0x133 / me=umh / subme=8 / psy=1 / psy_rd=1.00:0.00 / mixed_ref=1 / me_range=16 / chroma_me=1 / trellis=1 / 8x8dct=1 / cqm=0 / deadzone=21,11 / fast_pskip=0 / chroma_qp_offset=-2 / threads=18 / sliced_threads=0 / nr=0 / decimate=1 / interlaced=0 / bluray_compat=0 / constrained_intra=0 / bframes=3 / b_pyramid=2 / b_adapt=1 / b_bias=0 / direct=1 / weightb=1 / open_gop=0 / weightp=2 / keyint=240 / keyint_min=24 / scenecut=40 / intra_refresh=0 / rc_lookahead=40 / rc=2pass / mbtree=1 / bitrate=8758 / ratetol=1.0 / qcomp=0.60 / qpmin=0 / qpmax=69 / qpstep=4 / cplxblur=20.0 / qblur=0.5 / ip_ratio=1.40 / aq=1:1.00
  25. Language                                 : English
  26. Default                                  : No
  27. Forced                                   : No

  28. Audio
  29. ID                                       : 2
  30. Format                                   : DTS
  31. Format/Info                              : Digital Theater Systems
  32. Codec ID                                 : A_DTS
  33. Duration                                 : 1 h 31 min
  34. Bit rate mode                            : Constant
  35. Bit rate                                 : 1 509 kb/s
  36. Channel(s)                               : 6 channels
  37. Channel layout                           : C L R Ls Rs LFE
  38. Sampling rate                            : 48.0 kHz
  39. Frame rate                               : 93.750 FPS (512 SPF)
  40. Bit depth                                : 24 bits
  41. Compression mode                         : Lossy
  42. Stream size                              : 986 MiB (15%)
  43. Title                                    : English
  44. Language                                 : English
  45. Default                                  : Yes
  46. Forced                                   : No
复制代码

朱迪之夏/朱迪·穆迪和不太糟糕的炎天 Judy.Moody.and.the.Not.Bummer.Summer.2011.1080p.BluRay.x264-Counterfeit 6.55GB-2.png 朱迪之夏/朱迪·穆迪和不太糟糕的炎天 Judy.Moody.and.the.Not.Bummer.Summer.2011.1080p.BluRay.x264-Counterfeit 6.55GB-3.png 朱迪之夏/朱迪·穆迪和不太糟糕的炎天 Judy.Moody.and.the.Not.Bummer.Summer.2011.1080p.BluRay.x264-Counterfeit 6.55GB-4.png






回复

使用道具 举报

懒得打字嘛,点击右侧快捷回复 【右侧内容,后台自定义】
您需要登录后才可以回帖 登录 | 立即加入

本版积分规则

Archiver|小黑屋| 蓝光电影网 |网站地图

Copyright © 2021 Comsenz Inc. Powered by 蓝光电影网

蓝光电影网

本站内容由用户自主分享和转载自互联网,转载目的在于传递更多信息,并不代表本网赞同其观点和对其真实性负责。

如有侵权、违反国家法律政策行为,请联系我们,我们会第一时间及时清除和处理!

举报反馈邮箱:[email protected]

快速回复 返回顶部 返回列表