找回密码

蓝光电影网

查看: 170|回复: 0

[剧情] 某些人 Some.People.1962.720p.BluRay.x264-SPOOKS 4.83GB

[复制链接]
蓝光币
515
发表于 2020-4-25 12:44:51 | 显示全部楼层 |阅读模式
某些人 Some.People.1962.720p.BluRay.x264-SPOOKS 4.83GB-1.png

译  名 某些人
片  名 Some People
年  代 1962
产  地 英国
类  别 剧情 / 歌舞
语  言 英语
上映日期 1962
IMDb评分  6.2/10 from 220 users
IMDb链接  https://www.imdb.com/title/tt0056509
豆瓣评分 0/10 from 0 users
豆瓣链接 https://movie.douban.com/subject/5058973/
片  长 93 分钟
导  演 克里夫·唐纳 Clive Donner
编  剧 约翰·埃尔德里奇 John Eldridge
主  演 肯尼思·莫尔 Kenneth More
       Ray Brooks
       阿妮蔻·威尔斯 Anneke Wills
       大卫·安德鲁斯 David Andrews
       Angela Douglas
       戴维·海明斯 David Hemmings


标  签 D9 | 1962

简  介  

  暂无相关剧情先容
  1. Video
  2. ID                                       : 1
  3. Format                                   : AVC
  4. Format/Info                              : Advanced Video Codec
  5. Format profile                           : [email protected]
  6. Format settings                          : CABAC / 9 Ref Frames
  7. Format settings, CABAC                   : Yes
  8. Format settings, Reference frames        : 9 frames
  9. Codec ID                                 : V_MPEG4/ISO/AVC
  10. Duration                                 : 1 h 33 min
  11. Bit rate                                 : 6 863 kb/s
  12. Width                                    : 1 194 pixels
  13. Height                                   : 720 pixels
  14. Display aspect ratio                     : 5:3
  15. Frame rate mode                          : Constant
  16. Frame rate                               : 24.000 FPS
  17. Color space                              : YUV
  18. Chroma subsampling                       : 4:2:0
  19. Bit depth                                : 8 bits
  20. Scan type                                : Progressive
  21. Bits/(Pixel*Frame)                       : 0.333
  22. Stream size                              : 4.50 GiB (93%)
  23. Writing library                          : x264 core 160 r3000 33f9e14
  24. Encoding settings                        : cabac=1 / ref=9 / deblock=1:-3:-3 / analyse=0x3:0x133 / me=umh / subme=10 / psy=1 / psy_rd=1.50:0.15 / mixed_ref=1 / me_range=24 / chroma_me=1 / trellis=2 / 8x8dct=1 / cqm=0 / deadzone=21,11 / fast_pskip=0 / chroma_qp_offset=-3 / threads=22 / lookahead_threads=3 / sliced_threads=0 / nr=0 / decimate=0 / interlaced=0 / bluray_compat=0 / constrained_intra=0 / bframes=8 / b_pyramid=2 / b_adapt=2 / b_bias=0 / direct=3 / weightb=1 / open_gop=0 / weightp=2 / keyint=250 / keyint_min=24 / scenecut=40 / intra_refresh=0 / rc=crf / mbtree=0 / crf=19.2 / qcomp=0.60 / qpmin=0 / qpmax=69 / qpstep=4 / ip_ratio=1.40 / pb_ratio=1.30 / aq=3:0.50
  25. Default                                  : Yes
  26. Forced                                   : No
  27. Color range                              : Limited
  28. Matrix coefficients                      : BT.709

  29. Audio
  30. ID                                       : 2
  31. Format                                   : FLAC
  32. Format/Info                              : Free Lossless Audio Codec
  33. Codec ID                                 : A_FLAC
  34. Duration                                 : 1 h 33 min
  35. Bit rate mode                            : Variable
  36. Bit rate                                 : 446 kb/s
  37. Channel(s)                               : 2 channels
  38. Channel layout                           : L R
  39. Sampling rate                            : 48.0 kHz
  40. Frame rate                               : 10.417 FPS (4608 SPF)
  41. Bit depth                                : 16 bits
  42. Compression mode                         : Lossless
  43. Stream size                              : 300 MiB (6%)
  44. Writing library                          : Lavf58.29.100
  45. Language                                 : English
  46. Default                                  : Yes
  47. Forced                                   : No

  48. Text
  49. ID                                       : 3
  50. Format                                   : PGS
  51. Muxing mode                              : zlib
  52. Codec ID                                 : S_HDMV/PGS
  53. Codec ID/Info                            : Picture based subtitle format used on BDs/HD-DVDs
  54. Duration                                 : 1 h 33 min
  55. Bit rate                                 : 130 kb/s
  56. Count of elements                        : 4994
  57. Stream size                              : 87.4 MiB (2%)
  58. Language                                 : English
  59. Default                                  : No
  60. Forced                                   : No

  61. Menu
  62. 00:00:00.000                             : en:Chapter 01
  63. 00:08:37.083                             : en:Chapter 02
  64. 00:19:23.917                             : en:Chapter 03
  65. 00:24:42.958                             : en:Chapter 04
  66. 00:33:12.250                             : en:Chapter 05
  67. 00:40:28.042                             : en:Chapter 06
  68. 00:45:45.667                             : en:Chapter 07
  69. 00:57:04.333                             : en:Chapter 08
  70. 01:06:14.500                             : en:Chapter 09
  71. 01:13:48.042                             : en:Chapter 10
  72. 01:21:21.875                             : en:Chapter 11
  73. 01:27:00.500                             : en:Chapter 12
复制代码

某些人 Some.People.1962.720p.BluRay.x264-SPOOKS 4.83GB-2.png






回复

使用道具 举报

懒得打字嘛,点击右侧快捷回复 【右侧内容,后台自定义】
您需要登录后才可以回帖 登录 | 立即加入

本版积分规则

Archiver|小黑屋| 蓝光电影网 |网站地图

Copyright © 2021 Comsenz Inc. Powered by 蓝光电影网

蓝光电影网

本站内容由用户自主分享和转载自互联网,转载目的在于传递更多信息,并不代表本网赞同其观点和对其真实性负责。

如有侵权、违反国家法律政策行为,请联系我们,我们会第一时间及时清除和处理!

举报反馈邮箱:[email protected]

快速回复 返回顶部 返回列表