找回密码

蓝光电影网

查看: 207|回复: 0

[纪录] 曾经是兄弟:罗比·罗伯特森与乐队 Once.Were.Brothers.Robbie.Robertson.And.The.Band.2020.1080p.AMZN.WEBRip.DDP5.1.x264-QOQ 5.49GB

[复制链接]
蓝光币
509
发表于 2020-4-25 12:50:14 | 显示全部楼层 |阅读模式
已经是兄弟:罗比·罗伯特森与乐队 Once.Were.Brothers.Robbie.Robertson.And.The.Band.2020.1080p.AMZN.WEBRip.DDP5.1.x264-QOQ 5.49GB-1.png

译  名 已经是兄弟:罗比·罗伯特森与乐队
片  名 Once Were Brothers: Robbie Robertson and The Band
年  代 2019
产  地 美国
类  别 记载片
语  言 英语
上映日期 2019-09-05(多伦多电影节)
IMDb评分  7.6/10 from 208 users
IMDb链接  https://www.imdb.com/title/tt10334456
豆瓣评分 0/10 from 0 users
豆瓣链接 https://movie.douban.com/subject/34609761/
片  长 100分钟
导  演 Daniel Roher
主  演 马丁·斯科塞斯 Martin Scorsese
       布鲁斯·斯普林斯汀 Bruce Springsteen
       鲍勃·迪伦 Bob Dylan
       彼特·加布埃尔 Peter Gabriel
       埃里克·克莱普顿 Eric Clapton
       大卫·格芬 David Geffen
       范·莫里森 Van Morrison
       Robbie Robertson
       Rick Dano
       Ronnie Hawkins
       Jann Wenner
       Taj Mahal
       Jimmy Vivino
       John Scheele
       Elliott Landy


标  签 记载片 | 音乐 | 加拿大 | TIFF2019 | RobbieRobertson | 2010s

简  介  

  It will tell the story of a group that went from backing up Bob Dylan to become one of the most influential groups of its era.
  1. Video
  2. ID                                       : 1
  3. Format                                   : AVC
  4. Format/Info                              : Advanced Video Codec
  5. Format profile                           : [email protected]
  6. Format settings                          : CABAC / 4 Ref Frames
  7. Format settings, CABAC                   : Yes
  8. Format settings, Reference frames        : 4 frames
  9. Codec ID                                 : V_MPEG4/ISO/AVC
  10. Duration                                 : 1 h 41 min
  11. Bit rate mode                            : Constant
  12. Bit rate                                 : 7 099 kb/s
  13. Nominal bit rate                         : 10 000 kb/s
  14. Width                                    : 1 920 pixels
  15. Height                                   : 1 080 pixels
  16. Display aspect ratio                     : 16:9
  17. Frame rate mode                          : Constant
  18. Frame rate                               : 23.976 (24000/1001/189150) FPS
  19. Color space                              : YUV
  20. Chroma subsampling                       : 4:2:0
  21. Bit depth                                : 8 bits
  22. Scan type                                : Progressive
  23. Bits/(Pixel*Frame)                       : 0.143
  24. Stream size                              : 5.04 GiB (92%)
  25. Default                                  : Yes
  26. Forced                                   : No
  27. Color range                              : Limited
  28. Color primaries                          : BT.709
  29. Transfer characteristics                 : BT.709
  30. Matrix coefficients                      : BT.709

  31. Audio
  32. ID                                       : 2
  33. Format                                   : E-AC-3
  34. Format/Info                              : Enhanced AC-3
  35. Commercial name                          : Dolby Digital Plus
  36. Codec ID                                 : A_EAC3
  37. Duration                                 : 1 h 41 min
  38. Bit rate mode                            : Constant
  39. Bit rate                                 : 640 kb/s
  40. Channel(s)                               : 6 channels
  41. Channel layout                           : L R C LFE Ls Rs
  42. Sampling rate                            : 48.0 kHz
  43. Frame rate                               : 31.250 FPS (1536 SPF)
  44. Compression mode                         : Lossy
  45. Stream size                              : 465 MiB (8%)
  46. Language                                 : English
  47. Service kind                             : Complete Main
  48. Default                                  : Yes
  49. Forced                                   : No

  50. Text #1
  51. ID                                       : 3
  52. Format                                   : UTF-8
  53. Codec ID                                 : S_TEXT/UTF8
  54. Codec ID/Info                            : UTF-8 Plain Text
  55. Duration                                 : 1 h 40 min
  56. Bit rate                                 : 86 b/s
  57. Count of elements                        : 1806
  58. Stream size                              : 63.5 KiB (0%)
  59. Language                                 : English
  60. Default                                  : No
  61. Forced                                   : No

  62. Text #2
  63. ID                                       : 4
  64. Format                                   : UTF-8
  65. Codec ID                                 : S_TEXT/UTF8
  66. Codec ID/Info                            : UTF-8 Plain Text
  67. Duration                                 : 1 h 40 min
  68. Bit rate                                 : 86 b/s
  69. Count of elements                        : 1806
  70. Stream size                              : 63.5 KiB (0%)
  71. Title                                    : SDH
  72. Language                                 : English
  73. Default                                  : No
  74. Forced                                   : No
复制代码

已经是兄弟:罗比·罗伯特森与乐队 Once.Were.Brothers.Robbie.Robertson.And.The.Band.2020.1080p.AMZN.WEBRip.DDP5.1.x264-QOQ 5.49GB-2.png 已经是兄弟:罗比·罗伯特森与乐队 Once.Were.Brothers.Robbie.Robertson.And.The.Band.2020.1080p.AMZN.WEBRip.DDP5.1.x264-QOQ 5.49GB-3.png 已经是兄弟:罗比·罗伯特森与乐队 Once.Were.Brothers.Robbie.Robertson.And.The.Band.2020.1080p.AMZN.WEBRip.DDP5.1.x264-QOQ 5.49GB-4.png






回复

使用道具 举报

懒得打字嘛,点击右侧快捷回复 【右侧内容,后台自定义】
您需要登录后才可以回帖 登录 | 立即加入

本版积分规则

Archiver|小黑屋| 蓝光电影网 |网站地图

Copyright © 2021 Comsenz Inc. Powered by 蓝光电影网

蓝光电影网

本站内容由用户自主分享和转载自互联网,转载目的在于传递更多信息,并不代表本网赞同其观点和对其真实性负责。

如有侵权、违反国家法律政策行为,请联系我们,我们会第一时间及时清除和处理!

举报反馈邮箱:[email protected]

快速回复 返回顶部 返回列表