找回密码

蓝光电影网

查看: 216|回复: 0

[剧情] 孔雀夫人/杜德伍斯夫人 Dodsworth.1936.REPACK.720p.BluRay.X264-AMIABLE 7.47GB

[复制链接]
蓝光币
515
发表于 2020-4-26 10:03:39 | 显示全部楼层 |阅读模式
孔雀夫人/杜德伍斯夫人 Dodsworth.1936.REPACK.720p.BluRay.X264-AMIABLE 7.47GB-1.png

译  名 孔雀夫人 / 杜德伍斯夫人 / 道兹沃斯
片  名 Dodsworth
年  代 1936
产  地 美国
类  别 剧情 / 恋爱
语  言 英语 / 法语 / 德语 / 意大利语
上映日期 1936-09-23
IMDb评分  7.8/10 from 7608 users
IMDb链接  https://www.imdb.com/title/tt0027532
豆瓣评分 7.3/10 from 313 users
豆瓣链接 https://movie.douban.com/subject/1292972/
片  长 101 分钟
导  演 William Wyler
编  剧 Sidney Howard
主  演 Walter Huston
       Ruth Chatterton
       Paul Lukas
       Mary Astor


标  签 美国 | 恋爱 | 美国电影 | WilliamWyler | 威廉·惠勒 | 1936 | 1930s | 威廉·怀勒

简  介  

  山姆(沃尔特·休斯顿 Walter Huston 饰)虽然有钱但过得并不欢畅,他和妻子芙兰(鲁斯·查特顿 Ruth Chatterton 饰)之间的豪情并反面谐,芙兰向往布满了刺激的生活,为了满足妻子的要求,山姆带着芙兰踏上了前往欧洲的旅途。在途中,芙兰相逢了一位英俊的男爵,为了和男爵在一路,她无情的抛弃了山姆。
  悲伤欲绝的山姆流浪在异国异乡,偶然当中相逢了名为伊迪斯(玛丽·阿斯特 Mary Astor 饰)的孀妇。伊迪斯的善良和开畅深深的吸引着山姆,两人之间迸发出了无疑伦比的豪情,可是,就在山姆想要和伊迪斯私定毕生之时,被男爵抛弃的芙兰回到了他的身旁。

获奖情况  

  第9届奥斯卡金像奖(1937)
  最好影片(提名)
  最好导演(提名) 威廉·惠勒
  最好男配角(提名) 沃尔特·休斯顿
  最好女配角(提名) 玛丽亚·彭斯卡娅
  最好编剧(提名) 西德尼·霍华德
  最好录音(提名) Oscar Lagerstrom
  最好艺术指导 理查德·戴
  1. Video
  2. ID                                       : 1
  3. Format                                   : AVC
  4. Format/Info                              : Advanced Video Codec
  5. Format profile                           : [email protected]
  6. Format settings                          : CABAC / 8 Ref Frames
  7. Format settings, CABAC                   : Yes
  8. Format settings, Reference frames        : 8 frames
  9. Codec ID                                 : V_MPEG4/ISO/AVC
  10. Duration                                 : 1 h 41 min
  11. Bit rate                                 : 9 945 kb/s
  12. Width                                    : 986 pixels
  13. Height                                   : 720 pixels
  14. Display aspect ratio                     : 4:3
  15. Frame rate mode                          : Constant
  16. Frame rate                               : 23.976 (24000/1001/189150) FPS
  17. Color space                              : YUV
  18. Chroma subsampling                       : 4:2:0
  19. Bit depth                                : 8 bits
  20. Scan type                                : Progressive
  21. Bits/(Pixel*Frame)                       : 0.584
  22. Stream size                              : 7.05 GiB (94%)
  23. Writing library                          : x264 core 159 r2991 1771b55
  24. Encoding settings                        : cabac=1 / ref=8 / deblock=1:-3:-3 / analyse=0x3:0x133 / me=umh / subme=9 / psy=1 / psy_rd=1.15:0.00 / mixed_ref=1 / me_range=24 / chroma_me=1 / trellis=2 / 8x8dct=1 / cqm=0 / deadzone=21,11 / fast_pskip=0 / chroma_qp_offset=-2 / threads=22 / lookahead_threads=1 / sliced_threads=0 / nr=0 / decimate=0 / interlaced=0 / bluray_compat=0 / constrained_intra=0 / bframes=3 / b_pyramid=2 / b_adapt=2 / b_bias=0 / direct=3 / weightb=1 / open_gop=0 / weightp=2 / keyint=240 / keyint_min=24 / scenecut=40 / intra_refresh=0 / rc=crf / mbtree=0 / crf=17.7 / qcomp=0.60 / qpmin=0 / qpmax=69 / qpstep=4 / ip_ratio=1.40 / pb_ratio=1.30 / aq=3:0.65
  25. Default                                  : Yes
  26. Forced                                   : No
  27. Color range                              : Limited
  28. Matrix coefficients                      : BT.709

  29. Audio
  30. ID                                       : 2
  31. Format                                   : FLAC
  32. Format/Info                              : Free Lossless Audio Codec
  33. Codec ID                                 : A_FLAC
  34. Duration                                 : 1 h 41 min
  35. Bit rate mode                            : Variable
  36. Bit rate                                 : 515 kb/s
  37. Channel(s)                               : 2 channels
  38. Channel layout                           : L R
  39. Sampling rate                            : 48.0 kHz
  40. Frame rate                               : 11.719 FPS (4096 SPF)
  41. Bit depth                                : 24 bits
  42. Compression mode                         : Lossless
  43. Stream size                              : 374 MiB (5%)
  44. Writing library                          : libFLAC 1.2.1 (UTC 2007-09-17)
  45. Language                                 : English
  46. Default                                  : Yes
  47. Forced                                   : No

  48. Text #1
  49. ID                                       : 3
  50. Format                                   : UTF-8
  51. Codec ID                                 : S_TEXT/UTF8
  52. Codec ID/Info                            : UTF-8 Plain Text
  53. Duration                                 : 1 h 38 min
  54. Bit rate                                 : 89 b/s
  55. Count of elements                        : 1733
  56. Stream size                              : 64.4 KiB (0%)
  57. Title                                    : Stripped SRT
  58. Language                                 : English
  59. Default                                  : No
  60. Forced                                   : No

  61. Text #2
  62. ID                                       : 4
  63. Format                                   : UTF-8
  64. Codec ID                                 : S_TEXT/UTF8
  65. Codec ID/Info                            : UTF-8 Plain Text
  66. Duration                                 : 1 h 40 min
  67. Bit rate                                 : 91 b/s
  68. Count of elements                        : 1881
  69. Stream size                              : 67.5 KiB (0%)
  70. Title                                    : SDH SRT
  71. Language                                 : English
  72. Default                                  : No
  73. Forced                                   : No

  74. Text #3
  75. ID                                       : 5
  76. Format                                   : PGS
  77. Muxing mode                              : zlib
  78. Codec ID                                 : S_HDMV/PGS
  79. Codec ID/Info                            : Picture based subtitle format used on BDs/HD-DVDs
  80. Duration                                 : 1 h 40 min
  81. Bit rate                                 : 115 kb/s
  82. Count of elements                        : 3762
  83. Stream size                              : 82.7 MiB (1%)
  84. Title                                    : English
  85. Language                                 : English
  86. Default                                  : No
  87. Forced                                   : No

  88. Menu
  89. 00:00:00.000                             : en:Chapter 01
  90. 00:07:15.060                             : en:Chapter 02
  91. 00:09:40.955                             : en:Chapter 03
  92. 00:10:35.009                             : en:Chapter 04
  93. 00:17:47.984                             : en:Chapter 05
  94. 00:23:37.416                             : en:Chapter 06
  95. 00:25:52.384                             : en:Chapter 07
  96. 00:36:17.008                             : en:Chapter 08
  97. 00:38:27.305                             : en:Chapter 09
  98. 00:46:37.962                             : en:Chapter 10
  99. 00:57:51.468                             : en:Chapter 11
  100. 01:02:40.757                             : en:Chapter 12
  101. 01:07:21.037                             : en:Chapter 13
  102. 01:10:48.953                             : en:Chapter 14
  103. 01:17:52.668                             : en:Chapter 15
  104. 01:27:53.977                             : en:Chapter 16
  105. 01:35:13.541                             : en:Chapter 17
  106. 01:40:17.511                             : en:Chapter 18
复制代码

孔雀夫人/杜德伍斯夫人 Dodsworth.1936.REPACK.720p.BluRay.X264-AMIABLE 7.47GB-2.png







回复

使用道具 举报

懒得打字嘛,点击右侧快捷回复 【右侧内容,后台自定义】
您需要登录后才可以回帖 登录 | 立即加入

本版积分规则

Archiver|小黑屋| 蓝光电影网 |网站地图

Copyright © 2021 Comsenz Inc. Powered by 蓝光电影网

蓝光电影网

本站内容由用户自主分享和转载自互联网,转载目的在于传递更多信息,并不代表本网赞同其观点和对其真实性负责。

如有侵权、违反国家法律政策行为,请联系我们,我们会第一时间及时清除和处理!

举报反馈邮箱:[email protected]

快速回复 返回顶部 返回列表