找回密码

蓝光电影网

查看: 199|回复: 0

[惊悚] 靓丽五人组:德州拉拉队丑闻 Fab.Five.The.Texas.Cheerleader.Scandal.2008.1080p.AMZN.WEBRip.DDP2.0.x264-ETHiCS 8.79GB

[复制链接]
蓝光币
515
发表于 2020-4-26 10:15:46 | 显示全部楼层 |阅读模式
MV5BMzIzMmYzY2ItNTFhYy00NTZmLThiYzItNTk4MTRhMDQ3M2EzXkEyXkFqcGdeQXVyNTI0ODIxNjU@.jpg

译  名 靓丽五人组:德州拉拉队丑闻
片  名 Fab Five: The Texas Cheerleader Scandal
产  地 美国
类  别 惊悚
语  言 英语
上映日期 2008-08-02
IMDb评分  5.9/10 from 2285 users
IMDb链接  https://www.imdb.com/title/tt1191113
豆瓣评分 0/10 from 0 users
豆瓣链接 https://movie.douban.com/subject/3852275/
导  演 Tom McLoughlin
编  剧 Teena Booth
主  演 Jenna Dewan
       Ashley Benson


标  签 青春 | 美国 | 剧情 | 美国电影 | 人性 | cheer | 拉拉队 | 家庭

简  介  

  lifetime按照实在事务改编
  Five high school cheerleaders, including the daughter of the school principal, run amok -- and teachers, parents and administrators allow them to get away with a wide range of scandalous behavior. Know as the "fab five," the girls disregard school rules, drink alcohol and post suggestive pictures on the Internet. But when the new cheerleading coach attempts to discipline them, her superiors ask her to resign. The real version of the events took place in McKinney, Texas, a Dallas suburb, and received national media attention in 2006.
  1. Video
  2. ID                                       : 1
  3. Format                                   : AVC
  4. Format/Info                              : Advanced Video Codec
  5. Format profile                           : [email protected]
  6. Format settings                          : CABAC / 4 Ref Frames
  7. Format settings, CABAC                   : Yes
  8. Format settings, Reference frames        : 4 frames
  9. Codec ID                                 : V_MPEG4/ISO/AVC
  10. Duration                                 : 1 h 29 min
  11. Bit rate                                 : 13.9 Mb/s
  12. Width                                    : 1 920 pixels
  13. Height                                   : 1 080 pixels
  14. Display aspect ratio                     : 16:9
  15. Frame rate mode                          : Constant
  16. Frame rate                               : 23.976 (24000/1001/189150) FPS
  17. Color space                              : YUV
  18. Chroma subsampling                       : 4:2:0
  19. Bit depth                                : 8 bits
  20. Scan type                                : Progressive
  21. Bits/(Pixel*Frame)                       : 0.279
  22. Stream size                              : 8.65 GiB (98%)
  23. Default                                  : Yes
  24. Forced                                   : No
  25. Color range                              : Limited
  26. Color primaries                          : BT.709
  27. Transfer characteristics                 : BT.709
  28. Matrix coefficients                      : BT.709

  29. Audio
  30. ID                                       : 2
  31. Format                                   : E-AC-3
  32. Format/Info                              : Enhanced AC-3
  33. Commercial name                          : Dolby Digital Plus
  34. Codec ID                                 : A_EAC3
  35. Duration                                 : 1 h 29 min
  36. Bit rate mode                            : Constant
  37. Bit rate                                 : 224 kb/s
  38. Channel(s)                               : 2 channels
  39. Channel layout                           : L R
  40. Sampling rate                            : 48.0 kHz
  41. Frame rate                               : 31.250 FPS (1536 SPF)
  42. Compression mode                         : Lossy
  43. Stream size                              : 143 MiB (2%)
  44. Title                                    : English
  45. Language                                 : English
  46. Service kind                             : Complete Main
  47. Default                                  : Yes
  48. Forced                                   : No

  49. Text
  50. ID                                       : 3
  51. Format                                   : UTF-8
  52. Codec ID                                 : S_TEXT/UTF8
  53. Codec ID/Info                            : UTF-8 Plain Text
  54. Duration                                 : 1 h 28 min
  55. Bit rate                                 : 88 b/s
  56. Count of elements                        : 1897
  57. Stream size                              : 57.1 KiB (0%)
  58. Title                                    : English [SDH]
  59. Language                                 : English
  60. Default                                  : No
  61. Forced                                   : No
复制代码

靓丽五人组:德州拉拉队丑闻 Fab.Five.The.Texas.Cheerleader.Scandal.2008.1080p.AMZN.WEBRip.DDP2.0.x264-ETHiCS 8.79GB-1.png 靓丽五人组:德州拉拉队丑闻 Fab.Five.The.Texas.Cheerleader.Scandal.2008.1080p.AMZN.WEBRip.DDP2.0.x264-ETHiCS 8.79GB-2.png 靓丽五人组:德州拉拉队丑闻 Fab.Five.The.Texas.Cheerleader.Scandal.2008.1080p.AMZN.WEBRip.DDP2.0.x264-ETHiCS 8.79GB-3.png






回复

使用道具 举报

懒得打字嘛,点击右侧快捷回复 【右侧内容,后台自定义】
您需要登录后才可以回帖 登录 | 立即加入

本版积分规则

Archiver|小黑屋| 蓝光电影网 |网站地图

Copyright © 2021 Comsenz Inc. Powered by 蓝光电影网

蓝光电影网

本站内容由用户自主分享和转载自互联网,转载目的在于传递更多信息,并不代表本网赞同其观点和对其真实性负责。

如有侵权、违反国家法律政策行为,请联系我们,我们会第一时间及时清除和处理!

举报反馈邮箱:[email protected]

快速回复 返回顶部 返回列表