找回密码

蓝光电影网

查看: 106|回复: 0

[剧情] 患难兄弟情/帕德尔顿 Paddleton.2019.1080p.NF.WEB.DDP5.1.x264-NTb 10.53GB

[复制链接]
蓝光币
515
发表于 2020-4-26 10:17:13 | 显示全部楼层 |阅读模式
MV5BMjAyZDUxODQtZjBhMy00NmQ5LTg5MmMtNGUxZjhkODk1NjdiXkEyXkFqcGdeQXVyNjg2NjQwMDQ@.jpg

译  名 磨难兄弟情 / 帕德尔顿 / 鄰家兄弟(台)
片  名 Paddleton
年  代 2019
产  地 美国
类  别 剧情
语  言 英语
上映日期 2019-02-01(圣丹斯电影节)
IMDb评分  7.2/10 from 9039 users
IMDb链接  https://www.imdb.com/title/tt8041276
豆瓣评分 6.8/10 from 514 users
豆瓣链接 https://movie.douban.com/subject/30411704/
片  长 89分钟(圣丹斯电影节)
导  演 亚历克斯·莱曼 Alex Lehmann
编  剧 亚历克斯·莱曼 Alex Lehmann / 马克·杜普拉斯 Mark Duplass
主  演 马克·杜普拉斯 Mark Duplass
       雷·罗马诺 Ray Romano
       玛格丽特·莫罗 Marguerite Moreau
       克里斯汀·伍兹 Christine Woods
       卡丹·哈迪森 Kadeem Hardison
       丹德里·泰勒 Dendrie Taylor
       亚历珊德拉毕林思 Alexandra Billings
       马特·布什 Matt Bush
       Stephen Oyoung
       拉维·帕特尔 Ravi Patel
       Jen Sung
       Bjorn Johnson
       埃弗·迈纳德 Ever Mainard
       Sierra Fisk
       Jack McGraw


标  签 剧情 | 友谊 | 美国 | 2019 | 生死 | Netflix | 文艺 | 温情

简  介  

  当两个反面的邻人之一被诊断为晚期癌症时,他们之间不成能的兄弟友谊就酿成了意想不到的友谊。忽然面临的灭亡,两兄弟(他们玩了一个叫Paddleton的游戏,赢的一方可以提出一个要求)决议去观光。但是,随着他们的履历揭暴露友谊的真正纽带——以及那意味着两个汉子之间利用诙谐来避免表达任何实在的感情,他们的笔墨旅程酿成了一个隐喻性的旅程。
  导演亚历克斯·雷曼用一个风趣的、鼓舞民气的故事逗你高兴,同时提出了一个题目震动你的心:爱在行动中是什么样子的?雷·罗曼诺(Ray Romano)是一个永久的灰心主义者,他尽力为他的病友寻觅希望的时辰。马克·杜普拉斯(Mark Duplass)是使民气碎的,他向命运投诚,却又想享用分开的每一刻。雷曼在观光类电影中奇妙地应用了感情的深度,这证实了这部电影的气力和其焦点的友谊。

获奖情况  

  第7届美国化装及发型设想工会奖(2020)
  电视电影/出格节目类最好殊效化装(提名)
  1. Video
  2. ID                                       : 1
  3. Format                                   : AVC
  4. Format/Info                              : Advanced Video Codec
  5. Format profile                           : [email protected]
  6. Format settings                          : CABAC / 4 Ref Frames
  7. Format settings, CABAC                   : Yes
  8. Format settings, Reference frames        : 4 frames
  9. Codec ID                                 : V_MPEG4/ISO/AVC
  10. Duration                                 : 1 h 29 min
  11. Bit rate                                 : 16.2 Mb/s
  12. Width                                    : 1 920 pixels
  13. Height                                   : 960 pixels
  14. Display aspect ratio                     : 2.000
  15. Frame rate mode                          : Constant
  16. Frame rate                               : 23.976 (24000/1001/189150) FPS
  17. Color space                              : YUV
  18. Chroma subsampling                       : 4:2:0
  19. Bit depth                                : 8 bits
  20. Scan type                                : Progressive
  21. Bits/(Pixel*Frame)                       : 0.367
  22. Stream size                              : 10.1 GiB (96%)
  23. Writing library                          : x264 core 159 r2991+50 29469ee t_mod_New [[email protected] X86_64]
  24. Encoding settings                        : cabac=1 / ref=4 / deblock=1:-3:-3 / analyse=0x3:0x133 / me=umh / subme=10 / psy=1 / fade_compensate=0.00 / psy_rd=1.00:0.15 / mixed_ref=1 / me_range=48 / chroma_me=1 / trellis=2 / 8x8dct=1 / cqm=0 / deadzone=21,11 / fast_pskip=0 / chroma_qp_offset=-3 / threads=12 / lookahead_threads=2 / sliced_threads=0 / nr=0 / decimate=0 / interlaced=0 / bluray_compat=0 / constrained_intra=0 / fgo=0 / bframes=8 / b_pyramid=2 / b_adapt=2 / b_bias=0 / direct=3 / weightb=1 / open_gop=0 / weightp=2 / keyint=250 / keyint_min=23 / scenecut=40 / intra_refresh=0 / rc=crf / mbtree=0 / crf=19.0000 / qcomp=0.60 / qpmin=0:0:0 / qpmax=69:69:69 / qpstep=4 / ip_ratio=1.30 / pb_ratio=1.20 / aq=3:0.80 / aq-sensitivity=10.00 / aq-factor=1.00:1.00:1.00 / aq2=0 / aq3=0
  25. Default                                  : Yes
  26. Forced                                   : No

  27. Audio
  28. ID                                       : 2
  29. Format                                   : E-AC-3
  30. Format/Info                              : Enhanced AC-3
  31. Commercial name                          : Dolby Digital Plus
  32. Codec ID                                 : A_EAC3
  33. Duration                                 : 1 h 29 min
  34. Bit rate mode                            : Constant
  35. Bit rate                                 : 640 kb/s
  36. Channel(s)                               : 6 channels
  37. Channel layout                           : L R C LFE Ls Rs
  38. Sampling rate                            : 48.0 kHz
  39. Frame rate                               : 31.250 FPS (1536 SPF)
  40. Compression mode                         : Lossy
  41. Stream size                              : 409 MiB (4%)
  42. Title                                    : English
  43. Language                                 : English
  44. Service kind                             : Complete Main
  45. Default                                  : Yes
  46. Forced                                   : No

  47. Text #1
  48. ID                                       : 3
  49. Format                                   : UTF-8
  50. Codec ID                                 : S_TEXT/UTF8
  51. Codec ID/Info                            : UTF-8 Plain Text
  52. Duration                                 : 1 h 24 min
  53. Bit rate                                 : 61 b/s
  54. Count of elements                        : 1231
  55. Stream size                              : 37.7 KiB (0%)
  56. Language                                 : English
  57. Default                                  : No
  58. Forced                                   : No

  59. Text #2
  60. ID                                       : 4
  61. Format                                   : UTF-8
  62. Codec ID                                 : S_TEXT/UTF8
  63. Codec ID/Info                            : UTF-8 Plain Text
  64. Duration                                 : 1 h 24 min
  65. Bit rate                                 : 65 b/s
  66. Count of elements                        : 1305
  67. Stream size                              : 40.5 KiB (0%)
  68. Title                                    : SDH
  69. Language                                 : English
  70. Default                                  : No
  71. Forced                                   : No

  72. Text #3
  73. ID                                       : 5
  74. Format                                   : UTF-8
  75. Codec ID                                 : S_TEXT/UTF8
  76. Codec ID/Info                            : UTF-8 Plain Text
  77. Duration                                 : 1 h 28 min
  78. Bit rate                                 : 89 b/s
  79. Count of elements                        : 1211
  80. Stream size                              : 58.2 KiB (0%)
  81. Language                                 : Arabic
  82. Default                                  : No
  83. Forced                                   : No

  84. Text #4
  85. ID                                       : 6
  86. Format                                   : UTF-8
  87. Codec ID                                 : S_TEXT/UTF8
  88. Codec ID/Info                            : UTF-8 Plain Text
  89. Duration                                 : 1 h 28 min
  90. Bit rate                                 : 48 b/s
  91. Count of elements                        : 1211
  92. Stream size                              : 31.5 KiB (0%)
  93. Language                                 : Czech
  94. Default                                  : No
  95. Forced                                   : No

  96. Text #5
  97. ID                                       : 7
  98. Format                                   : UTF-8
  99. Codec ID                                 : S_TEXT/UTF8
  100. Codec ID/Info                            : UTF-8 Plain Text
  101. Duration                                 : 1 h 28 min
  102. Bit rate                                 : 51 b/s
  103. Count of elements                        : 1024
  104. Stream size                              : 33.5 KiB (0%)
  105. Language                                 : Danish
  106. Default                                  : No
  107. Forced                                   : No

  108. Text #6
  109. ID                                       : 8
  110. Format                                   : UTF-8
  111. Codec ID                                 : S_TEXT/UTF8
  112. Codec ID/Info                            : UTF-8 Plain Text
  113. Duration                                 : 1 h 24 min
  114. Bit rate                                 : 56 b/s
  115. Count of elements                        : 1174
  116. Stream size                              : 35.0 KiB (0%)
  117. Language                                 : German
  118. Default                                  : No
  119. Forced                                   : No

  120. Text #7
  121. ID                                       : 9
  122. Format                                   : UTF-8
  123. Codec ID                                 : S_TEXT/UTF8
  124. Codec ID/Info                            : UTF-8 Plain Text
  125. Duration                                 : 1 h 28 min
  126. Bit rate                                 : 80 b/s
  127. Count of elements                        : 1213
  128. Stream size                              : 52.3 KiB (0%)
  129. Language                                 : Greek
  130. Default                                  : No
  131. Forced                                   : No

  132. Text #8
  133. ID                                       : 10
  134. Format                                   : UTF-8
  135. Codec ID                                 : S_TEXT/UTF8
  136. Codec ID/Info                            : UTF-8 Plain Text
  137. Duration                                 : 1 h 28 min
  138. Bit rate                                 : 54 b/s
  139. Count of elements                        : 1320
  140. Stream size                              : 35.4 KiB (0%)
  141. Language                                 : Spanish
  142. Default                                  : No
  143. Forced                                   : No

  144. Text #9
  145. ID                                       : 11
  146. Format                                   : UTF-8
  147. Codec ID                                 : S_TEXT/UTF8
  148. Codec ID/Info                            : UTF-8 Plain Text
  149. Duration                                 : 1 h 28 min
  150. Bit rate                                 : 49 b/s
  151. Count of elements                        : 1190
  152. Stream size                              : 32.0 KiB (0%)
  153. Title                                    : European
  154. Language                                 : Spanish
  155. Default                                  : No
  156. Forced                                   : No

  157. Text #10
  158. ID                                       : 12
  159. Format                                   : UTF-8
  160. Codec ID                                 : S_TEXT/UTF8
  161. Codec ID/Info                            : UTF-8 Plain Text
  162. Duration                                 : 1 h 28 min
  163. Bit rate                                 : 44 b/s
  164. Count of elements                        : 1110
  165. Stream size                              : 28.7 KiB (0%)
  166. Language                                 : Finnish
  167. Default                                  : No
  168. Forced                                   : No

  169. Text #11
  170. ID                                       : 13
  171. Format                                   : UTF-8
  172. Codec ID                                 : S_TEXT/UTF8
  173. Codec ID/Info                            : UTF-8 Plain Text
  174. Duration                                 : 1 h 28 min
  175. Bit rate                                 : 53 b/s
  176. Count of elements                        : 1179
  177. Stream size                              : 34.8 KiB (0%)
  178. Language                                 : French
  179. Default                                  : No
  180. Forced                                   : No

  181. Text #12
  182. ID                                       : 14
  183. Format                                   : UTF-8
  184. Codec ID                                 : S_TEXT/UTF8
  185. Codec ID/Info                            : UTF-8 Plain Text
  186. Duration                                 : 1 h 28 min
  187. Bit rate                                 : 81 b/s
  188. Count of elements                        : 1189
  189. Stream size                              : 52.5 KiB (0%)
  190. Language                                 : Hebrew
  191. Default                                  : No
  192. Forced                                   : No

  193. Text #13
  194. ID                                       : 15
  195. Format                                   : UTF-8
  196. Codec ID                                 : S_TEXT/UTF8
  197. Codec ID/Info                            : UTF-8 Plain Text
  198. Duration                                 : 1 h 24 min
  199. Bit rate                                 : 53 b/s
  200. Count of elements                        : 1210
  201. Stream size                              : 32.8 KiB (0%)
  202. Language                                 : Hungarian
  203. Default                                  : No
  204. Forced                                   : No

  205. Text #14
  206. ID                                       : 16
  207. Format                                   : UTF-8
  208. Codec ID                                 : S_TEXT/UTF8
  209. Codec ID/Info                            : UTF-8 Plain Text
  210. Duration                                 : 1 h 24 min
  211. Bit rate                                 : 56 b/s
  212. Count of elements                        : 1206
  213. Stream size                              : 35.1 KiB (0%)
  214. Language                                 : Indonesian
  215. Default                                  : No
  216. Forced                                   : No

  217. Text #15
  218. ID                                       : 17
  219. Format                                   : UTF-8
  220. Codec ID                                 : S_TEXT/UTF8
  221. Codec ID/Info                            : UTF-8 Plain Text
  222. Duration                                 : 1 h 24 min
  223. Bit rate                                 : 55 b/s
  224. Count of elements                        : 1223
  225. Stream size                              : 34.3 KiB (0%)
  226. Language                                 : Italian
  227. Default                                  : No
  228. Forced                                   : No

  229. Text #16
  230. ID                                       : 18
  231. Format                                   : UTF-8
  232. Codec ID                                 : S_TEXT/UTF8
  233. Codec ID/Info                            : UTF-8 Plain Text
  234. Duration                                 : 1 h 24 min
  235. Bit rate                                 : 46 b/s
  236. Count of elements                        : 1299
  237. Stream size                              : 28.7 KiB (0%)
  238. Language                                 : Japanese
  239. Default                                  : No
  240. Forced                                   : No

  241. Text #17
  242. ID                                       : 19
  243. Format                                   : UTF-8
  244. Codec ID                                 : S_TEXT/UTF8
  245. Codec ID/Info                            : UTF-8 Plain Text
  246. Duration                                 : 1 h 28 min
  247. Bit rate                                 : 69 b/s
  248. Count of elements                        : 1216
  249. Stream size                              : 45.0 KiB (0%)
  250. Language                                 : Korean
  251. Default                                  : No
  252. Forced                                   : No

  253. Text #18
  254. ID                                       : 20
  255. Format                                   : UTF-8
  256. Codec ID                                 : S_TEXT/UTF8
  257. Codec ID/Info                            : UTF-8 Plain Text
  258. Duration                                 : 1 h 28 min
  259. Bit rate                                 : 48 b/s
  260. Count of elements                        : 1211
  261. Stream size                              : 31.4 KiB (0%)
  262. Language                                 : Norwegian Bokmal
  263. Default                                  : No
  264. Forced                                   : No

  265. Text #19
  266. ID                                       : 21
  267. Format                                   : UTF-8
  268. Codec ID                                 : S_TEXT/UTF8
  269. Codec ID/Info                            : UTF-8 Plain Text
  270. Duration                                 : 1 h 28 min
  271. Bit rate                                 : 55 b/s
  272. Count of elements                        : 1211
  273. Stream size                              : 36.0 KiB (0%)
  274. Language                                 : Dutch
  275. Default                                  : No
  276. Forced                                   : No

  277. Text #20
  278. ID                                       : 22
  279. Format                                   : UTF-8
  280. Codec ID                                 : S_TEXT/UTF8
  281. Codec ID/Info                            : UTF-8 Plain Text
  282. Duration                                 : 1 h 24 min
  283. Bit rate                                 : 52 b/s
  284. Count of elements                        : 1138
  285. Stream size                              : 32.3 KiB (0%)
  286. Language                                 : Polish
  287. Default                                  : No
  288. Forced                                   : No

  289. Text #21
  290. ID                                       : 23
  291. Format                                   : UTF-8
  292. Codec ID                                 : S_TEXT/UTF8
  293. Codec ID/Info                            : UTF-8 Plain Text
  294. Duration                                 : 1 h 28 min
  295. Bit rate                                 : 50 b/s
  296. Count of elements                        : 1176
  297. Stream size                              : 33.0 KiB (0%)
  298. Language                                 : Portuguese
  299. Default                                  : No
  300. Forced                                   : No

  301. Text #22
  302. ID                                       : 24
  303. Format                                   : UTF-8
  304. Codec ID                                 : S_TEXT/UTF8
  305. Codec ID/Info                            : UTF-8 Plain Text
  306. Duration                                 : 1 h 28 min
  307. Bit rate                                 : 45 b/s
  308. Count of elements                        : 1206
  309. Stream size                              : 29.4 KiB (0%)
  310. Title                                    : Brazilian
  311. Language                                 : Portuguese
  312. Default                                  : No
  313. Forced                                   : No

  314. Text #23
  315. ID                                       : 25
  316. Format                                   : UTF-8
  317. Codec ID                                 : S_TEXT/UTF8
  318. Codec ID/Info                            : UTF-8 Plain Text
  319. Duration                                 : 1 h 24 min
  320. Bit rate                                 : 57 b/s
  321. Count of elements                        : 1161
  322. Stream size                              : 35.3 KiB (0%)
  323. Language                                 : Romanian
  324. Default                                  : No
  325. Forced                                   : No

  326. Text #24
  327. ID                                       : 26
  328. Format                                   : UTF-8
  329. Codec ID                                 : S_TEXT/UTF8
  330. Codec ID/Info                            : UTF-8 Plain Text
  331. Duration                                 : 1 h 28 min
  332. Bit rate                                 : 78 b/s
  333. Count of elements                        : 1191
  334. Stream size                              : 51.0 KiB (0%)
  335. Language                                 : Russian
  336. Default                                  : No
  337. Forced                                   : No

  338. Text #25
  339. ID                                       : 27
  340. Format                                   : UTF-8
  341. Codec ID                                 : S_TEXT/UTF8
  342. Codec ID/Info                            : UTF-8 Plain Text
  343. Duration                                 : 1 h 24 min
  344. Bit rate                                 : 52 b/s
  345. Count of elements                        : 1212
  346. Stream size                              : 32.4 KiB (0%)
  347. Language                                 : Swedish
  348. Default                                  : No
  349. Forced                                   : No

  350. Text #26
  351. ID                                       : 28
  352. Format                                   : UTF-8
  353. Codec ID                                 : S_TEXT/UTF8
  354. Codec ID/Info                            : UTF-8 Plain Text
  355. Duration                                 : 1 h 28 min
  356. Bit rate                                 : 131 b/s
  357. Count of elements                        : 1213
  358. Stream size                              : 85.1 KiB (0%)
  359. Language                                 : Thai
  360. Default                                  : No
  361. Forced                                   : No

  362. Text #27
  363. ID                                       : 29
  364. Format                                   : UTF-8
  365. Codec ID                                 : S_TEXT/UTF8
  366. Codec ID/Info                            : UTF-8 Plain Text
  367. Duration                                 : 1 h 28 min
  368. Bit rate                                 : 52 b/s
  369. Count of elements                        : 1184
  370. Stream size                              : 33.7 KiB (0%)
  371. Language                                 : Turkish
  372. Default                                  : No
  373. Forced                                   : No

  374. Text #28
  375. ID                                       : 30
  376. Format                                   : UTF-8
  377. Codec ID                                 : S_TEXT/UTF8
  378. Codec ID/Info                            : UTF-8 Plain Text
  379. Duration                                 : 1 h 28 min
  380. Bit rate                                 : 75 b/s
  381. Count of elements                        : 1213
  382. Stream size                              : 49.2 KiB (0%)
  383. Language                                 : Vietnamese
  384. Default                                  : No
  385. Forced                                   : No

  386. Text #29
  387. ID                                       : 31
  388. Format                                   : UTF-8
  389. Codec ID                                 : S_TEXT/UTF8
  390. Codec ID/Info                            : UTF-8 Plain Text
  391. Duration                                 : 1 h 28 min
  392. Bit rate                                 : 58 b/s
  393. Count of elements                        : 1171
  394. Stream size                              : 37.6 KiB (0%)
  395. Title                                    : Simplified
  396. Language                                 : Chinese
  397. Default                                  : No
  398. Forced                                   : No

  399. Text #30
  400. ID                                       : 32
  401. Format                                   : UTF-8
  402. Codec ID                                 : S_TEXT/UTF8
  403. Codec ID/Info                            : UTF-8 Plain Text
  404. Duration                                 : 1 h 28 min
  405. Bit rate                                 : 58 b/s
  406. Count of elements                        : 1211
  407. Stream size                              : 37.6 KiB (0%)
  408. Title                                    : Traditional
  409. Language                                 : Chinese
  410. Default                                  : No
  411. Forced                                   : No
复制代码

磨难兄弟情/帕德尔顿 Paddleton.2019.1080p.NF.WEB.DDP5.1.x264-NTb 10.53GB-1.png 磨难兄弟情/帕德尔顿 Paddleton.2019.1080p.NF.WEB.DDP5.1.x264-NTb 10.53GB-2.png 磨难兄弟情/帕德尔顿 Paddleton.2019.1080p.NF.WEB.DDP5.1.x264-NTb 10.53GB-3.png






回复

使用道具 举报

懒得打字嘛,点击右侧快捷回复 【右侧内容,后台自定义】
您需要登录后才可以回帖 登录 | 立即加入

本版积分规则

Archiver|小黑屋| 蓝光电影网 |网站地图

Copyright © 2021 Comsenz Inc. Powered by 蓝光电影网

蓝光电影网

本站内容由用户自主分享和转载自互联网,转载目的在于传递更多信息,并不代表本网赞同其观点和对其真实性负责。

如有侵权、违反国家法律政策行为,请联系我们,我们会第一时间及时清除和处理!

举报反馈邮箱:[email protected]

快速回复 返回顶部 返回列表