找回密码

蓝光电影网

查看: 183|回复: 0

[纪录] 时代精神3:迈步向前 Zeitgeist.Moving.Forward.2011.1080p.AMZN.WEBRip.DDP2.0.x264-TEPES 10.55GB

[复制链接]
蓝光币
515
发表于 2020-4-26 10:19:51 | 显示全部楼层 |阅读模式
时代精神3:迈步向前 Zeitgeist.Moving.Forward.2011.1080p.AMZN.WEBRip.DDP2.0.x264-TEPES 10.55GB-1.png

译  名 时代精神3:迈步向前
片  名 Zeitgeist: Moving Forward
年  代 2011
产  地 美国
类  别 记载片
语  言 英语
上映日期 2011-01-15(巴西)
IMDb评分  8.2/10 from 17183 users
IMDb链接  https://www.imdb.com/title/tt1781069
豆瓣评分 8.6/10 from 1212 users
豆瓣链接 https://movie.douban.com/subject/5959251/
片  长 161分钟
导  演 彼得·约瑟夫 Peter Joseph
编  剧 彼得·约瑟夫 Peter Joseph
主  演 彼得·约瑟夫 Peter Joseph
       Robert Sapolsky
       Gabor Mate


标  签 记载片 | 美国 | 时代精神 | 政治 | 2011 | Documentary | Zeitgeist | 经济

简  介  

  理论一:中性社会政治大概叫做现代社会政治是研讨自我与他人之间的好处配合点与相异点,从而构成的利他或利己的主观概念,进而由此概念分别好处团体,自反组成阶级社会。
  理论二:良性社会政治大概叫未来社会政治的终极意义是研讨人与人,人与天下之间的共性和自力性,基于此状态而发生的利 于个体自力的,一切人的良性社会【(物资条件:自动化与循环资本经济的建立)良性社会是有一群不牢固的自愿者组成的鞭策听类科学成长的公益社会,并不逼迫他人加入社会劳动而是激励将小我劳动的功效与社会分享。其他不牢固的不介入者也可以从中获得成长功效。】
  理论三:科学影响人类这个生物群体,而社会政治影响生命个体。【持久来看,是说自然科学对于我们的全部社会科学发生了缓慢而庞大的影响。正如马克思所说:生产关系生产关系决议分派原则,生产关系上的变更总是由于起到终极感化自然科学的成长速所引发的。而现代社会政治只不外是在研讨若何分派好处,庇护好处而已,不管是物资上还是精神上,进而构成了主观的约束他人思惟的一系列的理论。这些理论总是包括着人们对于自然现象的表示的主观臆想,(例:社会进化论就是典型代表,就是经过从自然天下的某些现象中提炼的关于人类社会的理论。)】
  理论四:纵观人类文化,人们总是在不竭超脱自然法例。(这股超脱气力的源泉总是来历于自然科学,重来不是基于毫无物资根本的社会理论。)
  理论五(重点):现代社会政治逐步成为了对信息社会发生莫大影响的“新宗教”.【大量人力物力投用到了保护“新宗教”的斗争傍边,浪费了大量人力、资本。(例:甲士等) 违反了良性社会政治的意义,必定会像王权一样被人们抛弃。】
  理论六:现代社会政治牢牢控制着个体思维形式,都不谋而合的影响或抑制自然科学的成长。(“新宗教”的斗争与现代社会政治已经到了接近解体的境界,由于其自己就是人类个体所臆想出来的产物。人们越是接近真理就越发感觉这个幻景接近幻灭。)
  结论:科学的进步必定会使现代社会政治所淘汰。
  This movie is available on YouTube.
  1. Video
  2. ID                                       : 1
  3. Format                                   : AVC
  4. Format/Info                              : Advanced Video Codec
  5. Format profile                           : [email protected]
  6. Format settings                          : CABAC / 4 Ref Frames
  7. Format settings, CABAC                   : Yes
  8. Format settings, Reference frames        : 4 frames
  9. Codec ID                                 : V_MPEG4/ISO/AVC
  10. Duration                                 : 2 h 41 min
  11. Bit rate mode                            : Constant
  12. Bit rate                                 : 9 125 kb/s
  13. Nominal bit rate                         : 10 000 kb/s
  14. Width                                    : 1 920 pixels
  15. Height                                   : 1 080 pixels
  16. Display aspect ratio                     : 16:9
  17. Frame rate mode                          : Constant
  18. Frame rate                               : 29.970 (30000/1001/189150) FPS
  19. Standard                                 : NTSC
  20. Color space                              : YUV
  21. Chroma subsampling                       : 4:2:0
  22. Bit depth                                : 8 bits
  23. Scan type                                : Progressive
  24. Bits/(Pixel*Frame)                       : 0.147
  25. Stream size                              : 10.3 GiB (98%)
  26. Language                                 : English
  27. Default                                  : Yes
  28. Forced                                   : No
  29. Color range                              : Limited
  30. Color primaries                          : BT.709
  31. Transfer characteristics                 : BT.709
  32. Matrix coefficients                      : BT.709

  33. Audio
  34. ID                                       : 2
  35. Format                                   : E-AC-3
  36. Format/Info                              : Enhanced AC-3
  37. Commercial name                          : Dolby Digital Plus
  38. Codec ID                                 : A_EAC3
  39. Duration                                 : 2 h 41 min
  40. Bit rate mode                            : Constant
  41. Bit rate                                 : 224 kb/s
  42. Channel(s)                               : 2 channels
  43. Channel layout                           : L R
  44. Sampling rate                            : 48.0 kHz
  45. Frame rate                               : 31.250 FPS (1536 SPF)
  46. Compression mode                         : Lossy
  47. Stream size                              : 259 MiB (2%)
  48. Language                                 : English
  49. Service kind                             : Complete Main
  50. Default                                  : Yes
  51. Forced                                   : No

  52. Text
  53. ID                                       : 3
  54. Format                                   : UTF-8
  55. Codec ID                                 : S_TEXT/UTF8
  56. Codec ID/Info                            : UTF-8 Plain Text
  57. Duration                                 : 2 h 40 min
  58. Bit rate                                 : 108 b/s
  59. Count of elements                        : 3277
  60. Stream size                              : 128 KiB (0%)
  61. Title                                    : English [CC](SDH)
  62. Language                                 : English
  63. Default                                  : Yes
  64. Forced                                   : No
复制代码

时代精神3:迈步向前 Zeitgeist.Moving.Forward.2011.1080p.AMZN.WEBRip.DDP2.0.x264-TEPES 10.55GB-2.png 时代精神3:迈步向前 Zeitgeist.Moving.Forward.2011.1080p.AMZN.WEBRip.DDP2.0.x264-TEPES 10.55GB-3.png 时代精神3:迈步向前 Zeitgeist.Moving.Forward.2011.1080p.AMZN.WEBRip.DDP2.0.x264-TEPES 10.55GB-4.png







回复

使用道具 举报

懒得打字嘛,点击右侧快捷回复 【右侧内容,后台自定义】
您需要登录后才可以回帖 登录 | 立即加入

本版积分规则

Archiver|小黑屋| 蓝光电影网 |网站地图

Copyright © 2021 Comsenz Inc. Powered by 蓝光电影网

蓝光电影网

本站内容由用户自主分享和转载自互联网,转载目的在于传递更多信息,并不代表本网赞同其观点和对其真实性负责。

如有侵权、违反国家法律政策行为,请联系我们,我们会第一时间及时清除和处理!

举报反馈邮箱:[email protected]

快速回复 返回顶部 返回列表