找回密码

蓝光电影网

查看: 289|回复: 0

[悬疑] 森林中的女巫 Witches.in.the.Woods.2019.1080p.AMZN.WEBRip.DDP5.1.x264-NTG 4.97GB

[复制链接]
蓝光币
519
发表于 2020-4-26 10:20:48 | 显示全部楼层 |阅读模式
森林中的女巫 Witches.in.the.Woods.2019.1080p.AMZN.WEBRip.DDP5.1.x264-NTG 4.97GB-1.png

译  名 森林中的女巫 / Stranded
片  名 Witches in the Woods
年  代 2019
产  地 加拿大
类  别 悬疑 / 惊悚 / 可骇
语  言 英语
上映日期 2019-08-25(巴西)
IMDb评分  4.1/10 from 629 users
IMDb链接  https://www.imdb.com/title/tt8354344
豆瓣评分 0/10 from 0 users
豆瓣链接 https://movie.douban.com/subject/34457950/
片  长 90分钟
导  演 Jordan Barker
编  剧 克里斯托弗·博雷利 Christopher Borrelli
主  演 汉娜·卡苏拉卡 Hannah Kasulka
       Alexander De Jordy
       科宾·布鲁 Corbin Bleu


标  签 惊悚 | 悬疑 | 可骇 | 加拿大电影

简  介  

  Jill (Hannah Kasulka), a tenacious UMass student, abandons her studies for an off-the-grid snowboarding trip in Stoughton Valley, Massachusetts.Unfortunately, after the sun has dipped below the horizon, the group’s SUV becomes mysteriously lost in the freshly-logged mountains, eventually running out of gas.As temperatures fall, the group dynamic unravels as a virtual and then a literal witch hunt begins…
  1. Video
  2. ID                                       : 1
  3. Format                                   : AVC
  4. Format/Info                              : Advanced Video Codec
  5. Format profile                           : [email protected]
  6. Format settings                          : CABAC / 4 Ref Frames
  7. Format settings, CABAC                   : Yes
  8. Format settings, Reference frames        : 4 frames
  9. Codec ID                                 : V_MPEG4/ISO/AVC
  10. Duration                                 : 1 h 30 min
  11. Bit rate mode                            : Constant
  12. Bit rate                                 : 7 217 kb/s
  13. Nominal bit rate                         : 10 000 kb/s
  14. Width                                    : 1 920 pixels
  15. Height                                   : 800 pixels
  16. Display aspect ratio                     : 2.40:1
  17. Frame rate mode                          : Constant
  18. Frame rate                               : 23.976 (24000/1001/189150) FPS
  19. Color space                              : YUV
  20. Chroma subsampling                       : 4:2:0
  21. Bit depth                                : 8 bits
  22. Scan type                                : Progressive
  23. Bits/(Pixel*Frame)                       : 0.196
  24. Stream size                              : 4.57 GiB (92%)
  25. Default                                  : Yes
  26. Forced                                   : No
  27. Color range                              : Limited
  28. Color primaries                          : BT.709
  29. Transfer characteristics                 : BT.709
  30. Matrix coefficients                      : BT.709

  31. Audio
  32. ID                                       : 2
  33. Format                                   : E-AC-3
  34. Format/Info                              : Enhanced AC-3
  35. Commercial name                          : Dolby Digital Plus
  36. Codec ID                                 : A_EAC3
  37. Duration                                 : 1 h 30 min
  38. Bit rate mode                            : Constant
  39. Bit rate                                 : 640 kb/s
  40. Channel(s)                               : 6 channels
  41. Channel layout                           : L R C LFE Ls Rs
  42. Sampling rate                            : 48.0 kHz
  43. Frame rate                               : 31.250 FPS (1536 SPF)
  44. Compression mode                         : Lossy
  45. Stream size                              : 415 MiB (8%)
  46. Language                                 : English
  47. Service kind                             : Complete Main
  48. Default                                  : Yes
  49. Forced                                   : No

  50. Text
  51. ID                                       : 3
  52. Format                                   : UTF-8
  53. Codec ID                                 : S_TEXT/UTF8
  54. Codec ID/Info                            : UTF-8 Plain Text
  55. Duration                                 : 1 h 23 min
  56. Bit rate                                 : 41 b/s
  57. Count of elements                        : 988
  58. Stream size                              : 25.4 KiB (0%)
  59. Language                                 : English
  60. Default                                  : No
  61. Forced                                   : No

  62. Menu
  63. 00:00:00.000                             : en:1
  64. 00:03:08.850                             : en:2
  65. 00:14:53.850                             : en:3
  66. 00:26:48.850                             : en:4
  67. 00:36:53.850                             : en:5
  68. 00:43:36.850                             : en:6
  69. 00:54:43.850                             : en:7
  70. 01:05:41.850                             : en:8
  71. 01:15:30.850                             : en:9
  72. 01:26:26.850                             : en:10
复制代码

森林中的女巫 Witches.in.the.Woods.2019.1080p.AMZN.WEBRip.DDP5.1.x264-NTG 4.97GB-2.png 森林中的女巫 Witches.in.the.Woods.2019.1080p.AMZN.WEBRip.DDP5.1.x264-NTG 4.97GB-3.png 森林中的女巫 Witches.in.the.Woods.2019.1080p.AMZN.WEBRip.DDP5.1.x264-NTG 4.97GB-4.png






回复

使用道具 举报

懒得打字嘛,点击右侧快捷回复 【右侧内容,后台自定义】
您需要登录后才可以回帖 登录 | 立即加入

本版积分规则

Archiver|小黑屋| 蓝光电影网 |网站地图

Copyright © 2021 Comsenz Inc. Powered by 蓝光电影网

蓝光电影网

本站内容由用户自主分享和转载自互联网,转载目的在于传递更多信息,并不代表本网赞同其观点和对其真实性负责。

如有侵权、违反国家法律政策行为,请联系我们,我们会第一时间及时清除和处理!

举报反馈邮箱:[email protected]

快速回复 返回顶部 返回列表