找回密码

蓝光电影网

查看: 231|回复: 0

[剧情] 命帶追逐 Mirror.Image.2001.720p.BluRay.x264-BiPOLAR 2.11GB

[复制链接]
蓝光币
515
发表于 2020-4-26 10:27:14 | 显示全部楼层 |阅读模式
命帶追逐 Mirror.Image.2001.720p.BluRay.x264-BiPOLAR 2.11GB-1.png

译  名 命带追逐 / Mirror Image
片  名 命帶追逐
年  代 2000
产  地 中国台湾
类  别 剧情
语  言 汉语普通话
上映日期 2001-04-07(中国香港) / 2018-07-13(中国台湾)
IMDb评分  7.1/10 from 114 users
IMDb链接  https://www.imdb.com/title/tt0285730
豆瓣评分 6.7/10 from 81 users
豆瓣链接 https://movie.douban.com/subject/1299104/
片  长 72分钟
导  演 萧雅全 Ya-chuan Hsiao
编  剧 萧雅全 Ya-chuan Hsiao
主  演 范筱梵 Nana Fan
       李豪杰 Chun-chieh Lee
       王沛萁 Era Wang


标  签 台湾 | 蕭雅全 | 2000 | 台灣 | 萧雅全 | 台灣電影 | 2000s | 电影

简  介  

  寺库小老板因车祸落空掌纹,护士笑说他的人生今后不受限,他却因父亲住院,只能蹲在小寺库里,跟女友翻着各类旧物打发无聊。直到一个女子出现,他的生活似乎出现起色。好像清新版的《疯狂伙计》,这是萧雅全一鸣惊人的首作,其中可见到他对往事与旧物的迷恋,以及别的往后频频出现的创作元素。
  1. Video
  2. ID                                       : 1
  3. Format                                   : AVC
  4. Format/Info                              : Advanced Video Codec
  5. Format profile                           : [email protected]
  6. Format settings                          : CABAC / 8 Ref Frames
  7. Format settings, CABAC                   : Yes
  8. Format settings, Reference frames        : 8 frames
  9. Codec ID                                 : V_MPEG4/ISO/AVC
  10. Duration                                 : 1 h 14 min
  11. Bit rate                                 : 3 389 kb/s
  12. Width                                    : 1 280 pixels
  13. Height                                   : 692 pixels
  14. Display aspect ratio                     : 1.85:1
  15. Frame rate mode                          : Constant
  16. Frame rate                               : 24.000 FPS
  17. Color space                              : YUV
  18. Chroma subsampling                       : 4:2:0
  19. Bit depth                                : 8 bits
  20. Scan type                                : Progressive
  21. Bits/(Pixel*Frame)                       : 0.159
  22. Stream size                              : 1.76 GiB (83%)
  23. Writing library                          : x264 core 159 r2991 1771b55
  24. Encoding settings                        : cabac=1 / ref=8 / deblock=1:-3:-3 / analyse=0x3:0x133 / me=umh / subme=9 / psy=1 / psy_rd=0.90:0.00 / mixed_ref=1 / me_range=16 / chroma_me=1 / trellis=2 / 8x8dct=1 / cqm=0 / deadzone=21,11 / fast_pskip=1 / chroma_qp_offset=-2 / threads=18 / lookahead_threads=1 / sliced_threads=0 / nr=0 / decimate=1 / interlaced=0 / bluray_compat=0 / constrained_intra=0 / bframes=3 / b_pyramid=2 / b_adapt=2 / b_bias=0 / direct=3 / weightb=1 / open_gop=0 / weightp=2 / keyint=250 / keyint_min=24 / scenecut=40 / intra_refresh=0 / rc_lookahead=60 / rc=crf / mbtree=1 / crf=18.6 / qcomp=0.60 / qpmin=0 / qpmax=69 / qpstep=4 / ip_ratio=1.40 / aq=3:0.60
  25. Language                                 : English
  26. Default                                  : Yes
  27. Forced                                   : No
  28. Color range                              : Limited
  29. Matrix coefficients                      : BT.709

  30. Audio
  31. ID                                       : 2
  32. Format                                   : AC-3
  33. Format/Info                              : Audio Coding 3
  34. Commercial name                          : Dolby Digital
  35. Codec ID                                 : A_AC3
  36. Duration                                 : 1 h 14 min
  37. Bit rate mode                            : Constant
  38. Bit rate                                 : 640 kb/s
  39. Channel(s)                               : 6 channels
  40. Channel layout                           : L R C LFE Ls Rs
  41. Sampling rate                            : 48.0 kHz
  42. Frame rate                               : 31.250 FPS (1536 SPF)
  43. Bit depth                                : 16 bits
  44. Compression mode                         : Lossy
  45. Stream size                              : 340 MiB (16%)
  46. Language                                 : Chinese
  47. Service kind                             : Complete Main
  48. Default                                  : Yes
  49. Forced                                   : No

  50. Text #1
  51. ID                                       : 3
  52. Format                                   : UTF-8
  53. Codec ID                                 : S_TEXT/UTF8
  54. Codec ID/Info                            : UTF-8 Plain Text
  55. Duration                                 : 1 h 8 min
  56. Bit rate                                 : 44 b/s
  57. Count of elements                        : 801
  58. Stream size                              : 22.2 KiB (0%)
  59. Title                                    : English
  60. Language                                 : English
  61. Default                                  : Yes
  62. Forced                                   : Yes

  63. Text #2
  64. ID                                       : 4
  65. Format                                   : PGS
  66. Muxing mode                              : zlib
  67. Codec ID                                 : S_HDMV/PGS
  68. Codec ID/Info                            : Picture based subtitle format used on BDs/HD-DVDs
  69. Duration                                 : 1 h 8 min
  70. Bit rate                                 : 21.9 kb/s
  71. Count of elements                        : 1484
  72. Stream size                              : 10.7 MiB (0%)
  73. Title                                    : English
  74. Language                                 : English
  75. Default                                  : No
  76. Forced                                   : No

  77. Text #3
  78. ID                                       : 5
  79. Format                                   : PGS
  80. Muxing mode                              : zlib
  81. Codec ID                                 : S_HDMV/PGS
  82. Codec ID/Info                            : Picture based subtitle format used on BDs/HD-DVDs
  83. Duration                                 : 1 h 8 min
  84. Bit rate                                 : 23.9 kb/s
  85. Count of elements                        : 1480
  86. Stream size                              : 11.7 MiB (1%)
  87. Title                                    : Chinese (traditional)
  88. Language                                 : Chinese
  89. Default                                  : No
  90. Forced                                   : No

  91. Menu
  92. 00:00:00.000                             : en:00:00:00.000
  93. 00:06:41.625                             : en:00:06:41.625
  94. 00:12:07.625                             : en:00:12:07.625
  95. 00:18:52.583                             : en:00:18:52.583
  96. 00:23:47.625                             : en:00:23:47.625
  97. 00:30:11.875                             : en:00:30:11.875
  98. 00:36:27.917                             : en:00:36:27.917
  99. 00:41:11.833                             : en:00:41:11.833
  100. 00:48:08.542                             : en:00:48:08.542
  101. 00:54:12.833                             : en:00:54:12.833
  102. 00:59:52.667                             : en:00:59:52.667
  103. 01:06:42.958                             : en:01:06:42.958
复制代码

命帶追逐 Mirror.Image.2001.720p.BluRay.x264-BiPOLAR 2.11GB-2.png







回复

使用道具 举报

懒得打字嘛,点击右侧快捷回复 【右侧内容,后台自定义】
您需要登录后才可以回帖 登录 | 立即加入

本版积分规则

Archiver|小黑屋| 蓝光电影网 |网站地图

Copyright © 2021 Comsenz Inc. Powered by 蓝光电影网

蓝光电影网

本站内容由用户自主分享和转载自互联网,转载目的在于传递更多信息,并不代表本网赞同其观点和对其真实性负责。

如有侵权、违反国家法律政策行为,请联系我们,我们会第一时间及时清除和处理!

举报反馈邮箱:[email protected]

快速回复 返回顶部 返回列表