找回密码

蓝光电影网

查看: 126|回复: 0

[纪录] 时代精神2/时代思潮:附录 Zeitgeist.The.Addendum.2008.1080p.WEBRip.x264-RARBG 2.35GB

[复制链接]
蓝光币
511
发表于 2020-4-26 10:42:43 | 显示全部楼层 |阅读模式
时代精神2/时代思潮:附录 Zeitgeist.The.Addendum.2008.1080p.WEBRip.x264-RARBG 2.35GB-1.png

译  名 时代精神2 / 时代思潮:附录
片  名 Zeitgeist: Addendum
年  代 2008
产  地 美国
类  别 记载片 / 历史 / 战争
语  言 英语
上映日期 2008-10-02
IMDb评分  8.3/10 from 17516 users
IMDb链接  https://www.imdb.com/title/tt1332128
豆瓣评分 8.6/10 from 3129 users
豆瓣链接 https://movie.douban.com/subject/3325170/
片  长 123 分钟
导  演 彼得·约瑟夫 Peter Joseph
编  剧 彼得·约瑟夫 Peter Joseph
主  演 雅克·法斯科 Jacque Fresco
       Roxanne Meadows
       John Perkins
       乔治·卡林 George Carlin
       吉杜·克里希那穆提 Jiddu Krishnamurti
       Ron Paul


标  签 记载片 | 美国 | 诡计论 | 金融 | 政治 | 时代精神 | 2008 | Documentary

简  介  

  影片从金融业和货币法则的构成动手,揭穿了其存在与运转的本质,指出包括美联储、天下银行在内的金融机构吞噬财富、奴役群众的罪罪行动。并例举巴拿马、伊朗、伊拉克、厄瓜多尔、委内瑞拉发生的一系列政治事务,与以大财团为幕后指使的美国金融机构存在着亲近联系。随后引伸出当前广为关注的能源、民主等题目,而现今诸多辣手的题目标关键地点皆可追溯至现存的金融货币体制。
  部分学者据此提出“维纳斯计划”,旨在指导人类追求一个无货币、配合顾惜并公道操纵地球现有资本的后乌托邦社会。而实现这一方针的条件,就是完全打破现有的金融体制。
  人类的明天是天堂还是天堂?挑选就在自己手中。
  1. Video
  2. ID                                       : 1
  3. Format                                   : AVC
  4. Format/Info                              : Advanced Video Codec
  5. Format profile                           : [email protected]
  6. Format settings                          : CABAC / 4 Ref Frames
  7. Format settings, CABAC                   : Yes
  8. Format settings, Reference frames        : 4 frames
  9. Codec ID                                 : avc1
  10. Codec ID/Info                            : Advanced Video Coding
  11. Duration                                 : 2 h 3 min
  12. Bit rate                                 : 2 500 kb/s
  13. Width                                    : 1 920 pixels
  14. Height                                   : 1 080 pixels
  15. Display aspect ratio                     : 16:9
  16. Frame rate mode                          : Constant
  17. Frame rate                               : 29.970 (29970/1000/189150) FPS
  18. Color space                              : YUV
  19. Chroma subsampling                       : 4:2:0
  20. Bit depth                                : 8 bits
  21. Scan type                                : Progressive
  22. Bits/(Pixel*Frame)                       : 0.040
  23. Stream size                              : 2.15 GiB (91%)
  24. Writing library                          : x264 core 152 r2851M ba24899
  25. Encoding settings                        : cabac=1 / ref=4 / deblock=1:-1:-1 / analyse=0x3:0x113 / me=umh / subme=9 / psy=1 / psy_rd=1.00:0.15 / mixed_ref=1 / me_range=24 / chroma_me=1 / trellis=2 / 8x8dct=1 / cqm=0 / deadzone=21,11 / fast_pskip=1 / chroma_qp_offset=-3 / threads=16 / lookahead_threads=4 / sliced_threads=0 / nr=0 / decimate=1 / interlaced=0 / bluray_compat=0 / constrained_intra=0 / bframes=3 / b_pyramid=2 / b_adapt=2 / b_bias=0 / direct=3 / weightb=1 / open_gop=0 / weightp=2 / keyint=250 / keyint_min=25 / scenecut=40 / intra_refresh=0 / rc_lookahead=50 / rc=2pass / mbtree=1 / bitrate=2500 / ratetol=1.0 / qcomp=0.60 / qpmin=0 / qpmax=69 / qpstep=4 / cplxblur=20.0 / qblur=0.5 / vbv_maxrate=31250 / vbv_bufsize=31250 / nal_hrd=none / filler=0 / ip_ratio=1.40 / aq=3:1.00
  26. Encoded date                             : UTC 2020-04-25 11:43:52
  27. Tagged date                              : UTC 2020-04-25 11:43:52
  28. Codec configuration box                  : avcC

  29. Audio
  30. ID                                       : 2
  31. Format                                   : AAC LC
  32. Format/Info                              : Advanced Audio Codec Low Complexity
  33. Codec ID                                 : mp4a-40-2
  34. Duration                                 : 2 h 3 min
  35. Duration_LastFrame                       : -11 ms
  36. Bit rate mode                            : Constant
  37. Bit rate                                 : 224 kb/s
  38. Channel(s)                               : 2 channels
  39. Channel layout                           : L R
  40. Sampling rate                            : 48.0 kHz
  41. Frame rate                               : 46.875 FPS (1024 SPF)
  42. Compression mode                         : Lossy
  43. Stream size                              : 197 MiB (8%)
  44. Language                                 : English
  45. Default                                  : Yes
  46. Alternate group                          : 1
  47. Encoded date                             : UTC 2020-04-25 11:43:52
  48. Tagged date                              : UTC 2020-04-25 11:43:52
复制代码

时代精神2/时代思潮:附录 Zeitgeist.The.Addendum.2008.1080p.WEBRip.x264-RARBG 2.35GB-2.png 时代精神2/时代思潮:附录 Zeitgeist.The.Addendum.2008.1080p.WEBRip.x264-RARBG 2.35GB-3.png 时代精神2/时代思潮:附录 Zeitgeist.The.Addendum.2008.1080p.WEBRip.x264-RARBG 2.35GB-4.png






回复

使用道具 举报

懒得打字嘛,点击右侧快捷回复 【右侧内容,后台自定义】
您需要登录后才可以回帖 登录 | 立即加入

本版积分规则

Archiver|小黑屋| 蓝光电影网 |网站地图

Copyright © 2021 Comsenz Inc. Powered by 蓝光电影网

蓝光电影网

本站内容由用户自主分享和转载自互联网,转载目的在于传递更多信息,并不代表本网赞同其观点和对其真实性负责。

如有侵权、违反国家法律政策行为,请联系我们,我们会第一时间及时清除和处理!

举报反馈邮箱:[email protected]

快速回复 返回顶部 返回列表