找回密码

蓝光电影网

查看: 146|回复: 0

[剧情] 戎马闯天关/夕阳挽歌 Wild.Rovers.1971.720p.BluRay.x264-SPECTACLE 8.74GB

[复制链接]
蓝光币
511
发表于 2020-4-26 10:51:12 | 显示全部楼层 |阅读模式
戎马闯天关/落日挽歌 Wild.Rovers.1971.720p.BluRay.x264-SPECTACLE 8.74GB-1.png

译  名 戎马闯天关 / 落日挽歌
片  名 Wild Rovers
年  代 1971
产  地 美国
类  别 西部
语  言 英语
上映日期 1972-06-08
IMDb评分  6.5/10 from 1378 users
IMDb链接  https://www.imdb.com/title/tt0067989
豆瓣评分 0/10 from 0 users
豆瓣链接 https://movie.douban.com/subject/2156017/
片  长 136 分钟
导  演 布莱克·爱德华兹 Blake Edwards
编  剧 布莱克·爱德华兹 Blake Edwards
主  演 威廉·霍尔登 William Holden
       瑞安·奥尼尔 Ryan O'Neal
       卡尔·莫尔登 Karl Malden
       琳恩·卡林 Lynn Carlin
       汤姆·斯凯里特 Tom Skerritt
       乔·唐·巴克 Joe Don Baker
       詹姆斯·奥尔森 James Olson
       劳拉达纳 Leora Dana
       摩西·冈恩 Moses Gunn
       瑞秋·罗伯茨 Rachel Roberts


标  签 美国电影 | 西部片 | 西部 | 布莱克·爱德华兹 | 威廉·霍尔登 | William_Holden | WilliamHolden | M美国

简  介  

  暂无相关剧情先容
  1. Video
  2. ID                                       : 1
  3. Format                                   : AVC
  4. Format/Info                              : Advanced Video Codec
  5. Format profile                           : [email protected]
  6. Format settings                          : CABAC / 9 Ref Frames
  7. Format settings, CABAC                   : Yes
  8. Format settings, Reference frames        : 9 frames
  9. Codec ID                                 : V_MPEG4/ISO/AVC
  10. Duration                                 : 2 h 17 min
  11. Bit rate                                 : 7 628 kb/s
  12. Width                                    : 1 280 pixels
  13. Height                                   : 720 pixels
  14. Display aspect ratio                     : 16:9
  15. Frame rate mode                          : Constant
  16. Frame rate                               : 23.976 (24000/1001/189150) FPS
  17. Color space                              : YUV
  18. Chroma subsampling                       : 4:2:0
  19. Bit depth                                : 8 bits
  20. Scan type                                : Progressive
  21. Bits/(Pixel*Frame)                       : 0.345
  22. Stream size                              : 7.29 GiB (83%)
  23. Writing library                          : x264 core 159 r2991 1771b55
  24. Encoding settings                        : cabac=1 / ref=9 / deblock=1:-3:-3 / analyse=0x3:0x133 / me=umh / subme=10 / psy=1 / psy_rd=1.00:0.00 / mixed_ref=1 / me_range=32 / chroma_me=1 / trellis=2 / 8x8dct=1 / cqm=0 / deadzone=21,11 / fast_pskip=0 / chroma_qp_offset=-2 / threads=22 / lookahead_threads=3 / sliced_threads=0 / nr=0 / decimate=1 / interlaced=0 / bluray_compat=0 / constrained_intra=0 / bframes=8 / b_pyramid=2 / b_adapt=2 / b_bias=0 / direct=3 / weightb=1 / open_gop=0 / weightp=2 / keyint=240 / keyint_min=23 / scenecut=40 / intra_refresh=0 / rc_lookahead=60 / rc=2pass / mbtree=0 / bitrate=7628 / ratetol=1.0 / qcomp=0.60 / qpmin=0 / qpmax=69 / qpstep=4 / cplxblur=20.0 / qblur=0.5 / vbv_maxrate=50000 / vbv_bufsize=62500 / nal_hrd=none / filler=0 / ip_ratio=1.40 / pb_ratio=1.30 / aq=3:0.65
  25. Default                                  : Yes
  26. Forced                                   : No

  27. Audio
  28. ID                                       : 2
  29. Format                                   : DTS
  30. Format/Info                              : Digital Theater Systems
  31. Codec ID                                 : A_DTS
  32. Duration                                 : 2 h 17 min
  33. Bit rate mode                            : Constant
  34. Bit rate                                 : 1 509 kb/s
  35. Channel(s)                               : 2 channels
  36. Channel layout                           : L R
  37. Sampling rate                            : 48.0 kHz
  38. Frame rate                               : 93.750 FPS (512 SPF)
  39. Bit depth                                : 24 bits
  40. Compression mode                         : Lossy
  41. Stream size                              : 1.44 GiB (17%)
  42. Language                                 : English
  43. Default                                  : Yes
  44. Forced                                   : No

  45. Text #1
  46. ID                                       : 3
  47. Format                                   : UTF-8
  48. Codec ID                                 : S_TEXT/UTF8
  49. Codec ID/Info                            : UTF-8 Plain Text
  50. Duration                                 : 2 h 12 min
  51. Bit rate                                 : 51 b/s
  52. Count of elements                        : 1859
  53. Stream size                              : 49.5 KiB (0%)
  54. Title                                    : SDH
  55. Language                                 : English
  56. Default                                  : No
  57. Forced                                   : No

  58. Text #2
  59. ID                                       : 4
  60. Format                                   : UTF-8
  61. Codec ID                                 : S_TEXT/UTF8
  62. Codec ID/Info                            : UTF-8 Plain Text
  63. Duration                                 : 2 h 9 min
  64. Bit rate                                 : 46 b/s
  65. Count of elements                        : 1658
  66. Stream size                              : 44.4 KiB (0%)
  67. Language                                 : English
  68. Default                                  : No
  69. Forced                                   : No

  70. Menu
  71. 00:00:00.000                             : :Chapter 01
  72. 00:02:17.137                             : :Chapter 02
  73. 00:04:44.826                             : :Chapter 03
  74. 00:05:55.564                             : :Chapter 04
  75. 00:07:58.728                             : :Chapter 05
  76. 00:11:28.354                             : :Chapter 06
  77. 00:16:07.508                             : :Chapter 07
  78. 00:21:02.303                             : :Chapter 08
  79. 00:25:48.130                             : :Chapter 09
  80. 00:30:56.772                             : :Chapter 10
  81. 00:35:31.921                             : :Chapter 11
  82. 00:39:15.603                             : :Chapter 12
  83. 00:42:22.874                             : :Chapter 13
  84. 00:45:48.788                             : :Chapter 14
  85. 00:49:11.657                             : :Chapter 15
  86. 00:53:43.053                             : :Chapter 16
  87. 00:57:08.759                             : :Chapter 17
  88. 01:02:58.525                             : :Chapter 18
  89. 01:08:15.883                             : :Chapter 19
  90. 01:13:04.589                             : :Chapter 20
  91. 01:17:38.863                             : :Chapter 21
  92. 01:22:22.396                             : :Chapter 22
  93. 01:25:51.646                             : :Chapter 23
  94. 01:25:57.611                             : :Chapter 24
  95. 01:27:58.064                             : :Chapter 25
  96. 01:30:11.656                             : :Chapter 26
  97. 01:34:39.549                             : :Chapter 27
  98. 01:37:30.011                             : :Chapter 28
  99. 01:40:30.441                             : :Chapter 29
  100. 01:45:25.778                             : :Chapter 30
  101. 01:48:59.616                             : :Chapter 31
  102. 01:51:33.729                             : :Chapter 32
  103. 01:56:27.856                             : :Chapter 33
  104. 01:59:54.687                             : :Chapter 34
  105. 02:02:29.467                             : :Chapter 35
  106. 02:07:41.487                             : :Chapter 36
  107. 02:09:37.812                             : :Chapter 37
  108. 02:14:09.041                             : :Chapter 38
  109. 02:15:35.961                             : :Chapter 39
复制代码

戎马闯天关/落日挽歌 Wild.Rovers.1971.720p.BluRay.x264-SPECTACLE 8.74GB-2.png







回复

使用道具 举报

懒得打字嘛,点击右侧快捷回复 【右侧内容,后台自定义】
您需要登录后才可以回帖 登录 | 立即加入

本版积分规则

Archiver|小黑屋| 蓝光电影网 |网站地图

Copyright © 2021 Comsenz Inc. Powered by 蓝光电影网

蓝光电影网

本站内容由用户自主分享和转载自互联网,转载目的在于传递更多信息,并不代表本网赞同其观点和对其真实性负责。

如有侵权、违反国家法律政策行为,请联系我们,我们会第一时间及时清除和处理!

举报反馈邮箱:[email protected]

快速回复 返回顶部 返回列表