找回密码

蓝光电影网

查看: 468|回复: 2

[动画] 夜曲 Nocturna.2007.1080p.BluRay.x264-HANDJOB 7.11GB

[复制链接]
蓝光币
511
发表于 2020-4-26 10:54:16 | 显示全部楼层 |阅读模式
夜曲 Nocturna.2007.1080p.BluRay.x264-HANDJOB 7.11GB-1.png

译  名 夜曲 / Nocturna, la nuit magique / 夜之曲 / 夜梦奇缘 / 星星高文战 / 暗夜 / 黑暗大街
片  名 Nocturna
年  代 2007
产  地 西班牙 / 法国
类  别 动画 / 奇异
语  言 西班牙语
上映日期 2007-10-11(西班牙)
IMDb评分  7.3/10 from 1995 users
IMDb链接  https://www.imdb.com/title/tt0836682
豆瓣评分 8.2/10 from 4311 users
豆瓣链接 https://movie.douban.com/subject/2225432/
片  长 80分钟
导  演 Adrià García / Víctor Maldonado
编  剧 Adrià García / Víctor Maldonado / Teresa Vilardell
主  演 Carlos Sobera
       Natalia Rodríguez
       Imanol Arias


标  签 动画 | 西班牙 | 手绘 | 动画电影 | 西班牙电影 | 动画片 | 2007 | 奇异

简  介  

  提姆是一个生活在孤儿院的孩子,他孤僻又有些怯懦,熟悉夜空中的星星,每晚要看着天上的星光后才能安然睡去,可是此日,提姆发现那颗属于他的星星消失不见了!没法入睡的提姆在屋顶焦灼的走动,失慎坠落,危机关头,催促猫们帮助孩子入睡的猫神父帕斯特将他救起。从帕斯特口中,提姆知晓还有一个夜间天下的存在,而莫卡是这个天下的治理者,提姆在帕斯特的率领下面见莫卡,向其说明星星正在逐步消失的异象,可莫卡并不关心。提姆只得偷拿了星星保护人的联系方式,奉求帕斯特再度陪伴他找回星星。在奇异的夜晚天下,提姆在帕斯特的猫随从们、建造梦和露珠的小精灵之间向星星保护者的住处进发,而并不晓得他和帕斯特现在落入了莫卡的诡计……

获奖情况  

  第22届西班牙戈雅奖(2008)
  最好动画片 维克多·马尔多纳多 / 安德里亚·加西亚
  1. Video
  2. ID                                       : 1
  3. Format                                   : AVC
  4. Format/Info                              : Advanced Video Codec
  5. Format profile                           : [email protected]
  6. Format settings                          : CABAC / 5 Ref Frames
  7. Format settings, CABAC                   : Yes
  8. Format settings, Reference frames        : 5 frames
  9. Codec ID                                 : V_MPEG4/ISO/AVC
  10. Duration                                 : 1 h 23 min
  11. Bit rate                                 : 11.5 Mb/s
  12. Width                                    : 1 914 pixels
  13. Height                                   : 808 pixels
  14. Display aspect ratio                     : 2.35:1
  15. Frame rate mode                          : Constant
  16. Frame rate                               : 23.976 (24000/1001/189150) FPS
  17. Color space                              : YUV
  18. Chroma subsampling                       : 4:2:0
  19. Bit depth                                : 8 bits
  20. Scan type                                : Progressive
  21. Bits/(Pixel*Frame)                       : 0.311
  22. Stream size                              : 6.73 GiB (95%)
  23. Writing library                          : x264 core 157 r2935 545de2f
  24. Encoding settings                        : cabac=1 / ref=5 / deblock=1:-3:-3 / analyse=0x3:0x133 / me=umh / subme=10 / psy=1 / psy_rd=1.00:0.00 / mixed_ref=1 / me_range=32 / chroma_me=1 / trellis=2 / 8x8dct=1 / cqm=0 / deadzone=21,11 / fast_pskip=0 / chroma_qp_offset=-2 / threads=25 / lookahead_threads=6 / sliced_threads=0 / nr=0 / decimate=0 / interlaced=0 / bluray_compat=0 / constrained_intra=0 / bframes=16 / b_pyramid=2 / b_adapt=2 / b_bias=0 / direct=3 / weightb=1 / open_gop=0 / weightp=2 / keyint=240 / keyint_min=24 / scenecut=40 / intra_refresh=0 / rc_lookahead=60 / rc=crf / mbtree=0 / crf=14.0 / qcomp=0.60 / qpmin=0 / qpmax=69 / qpstep=4 / vbv_maxrate=62500 / vbv_bufsize=78125 / crf_max=0.0 / nal_hrd=none / filler=0 / ip_ratio=1.40 / pb_ratio=1.30 / aq=2:1.00
  25. Default                                  : Yes
  26. Forced                                   : No
  27. Color range                              : Limited
  28. Color primaries                          : BT.709
  29. Transfer characteristics                 : BT.709
  30. Matrix coefficients                      : BT.709

  31. Audio
  32. ID                                       : 2
  33. Format                                   : AC-3
  34. Format/Info                              : Audio Coding 3
  35. Commercial name                          : Dolby Digital
  36. Codec ID                                 : A_AC3
  37. Duration                                 : 1 h 23 min
  38. Bit rate mode                            : Constant
  39. Bit rate                                 : 640 kb/s
  40. Channel(s)                               : 6 channels
  41. Channel layout                           : L R C LFE Ls Rs
  42. Sampling rate                            : 48.0 kHz
  43. Frame rate                               : 31.250 FPS (1536 SPF)
  44. Bit depth                                : 16 bits
  45. Compression mode                         : Lossy
  46. Stream size                              : 383 MiB (5%)
  47. Language                                 : English
  48. Service kind                             : Complete Main
  49. Default                                  : Yes
  50. Forced                                   : No

  51. Text
  52. ID                                       : 3
  53. Format                                   : UTF-8
  54. Codec ID                                 : S_TEXT/UTF8
  55. Codec ID/Info                            : UTF-8 Plain Text
  56. Duration                                 : 1 h 15 min
  57. Bit rate                                 : 52 b/s
  58. Count of elements                        : 1160
  59. Stream size                              : 29.3 KiB (0%)
  60. Language                                 : English
  61. Default                                  : No
  62. Forced                                   : No

  63. Menu
  64. 00:00:00.000                             : :Chapter 1
  65. 00:10:17.826                             : :Chapter 2
  66. 00:22:30.766                             : :Chapter 3
  67. 00:36:28.812                             : :Chapter 4
  68. 00:45:51.582                             : :Chapter 5
  69. 00:56:38.478                             : :Chapter 6
  70. 01:10:51.998                             : :Chapter 7
  71. 01:18:19.987                             : :Chapter 8
复制代码

夜曲 Nocturna.2007.1080p.BluRay.x264-HANDJOB 7.11GB-2.png 夜曲 Nocturna.2007.1080p.BluRay.x264-HANDJOB 7.11GB-3.png 夜曲 Nocturna.2007.1080p.BluRay.x264-HANDJOB 7.11GB-4.png







回复

使用道具 举报

蓝光币
1502
发表于 2020-4-28 17:23:19 | 显示全部楼层
楼主发贴辛苦了,谢谢楼主分享!我觉得蓝光电影网是注册对了!
回复 支持 反对

使用道具 举报

懒得打字嘛,点击右侧快捷回复 【右侧内容,后台自定义】
您需要登录后才可以回帖 登录 | 立即加入

本版积分规则

Archiver|小黑屋| 蓝光电影网 |网站地图

Copyright © 2021 Comsenz Inc. Powered by 蓝光电影网

蓝光电影网

本站内容由用户自主分享和转载自互联网,转载目的在于传递更多信息,并不代表本网赞同其观点和对其真实性负责。

如有侵权、违反国家法律政策行为,请联系我们,我们会第一时间及时清除和处理!

举报反馈邮箱:[email protected]

快速回复 返回顶部 返回列表