找回密码

蓝光电影网

查看: 131|回复: 0

[剧情] 天性使然 In.Our.Nature.2012.1080p.AMZN.WEBRip.DDP5.1.x264-QOQ 5.41GB

[复制链接]
蓝光币
515
发表于 2020-4-26 23:52:22 | 显示全部楼层 |阅读模式
天性使然 In.Our.Nature.2012.1080p.AMZN.WEBRip.DDP5.1.x264-QOQ 5.41GB-1.png

译  名 天性使然
片  名 In Our Nature
年  代 2012
产  地 美国
类  别 剧情
语  言 英语
IMDb评分  5.7/10 from 717 users
IMDb链接  https://www.imdb.com/title/tt1945087
豆瓣评分 0/10 from 0 users
豆瓣链接 https://movie.douban.com/subject/10544618/
导  演 Brian Savelson
编  剧 Brian Savelson
主  演 Jena Malone
       Gabrielle Union
       Zach Gilford


标  签 美国 | 电影 | 剧情 | jena_malone | downloaded | JohnSlattery | Jena_Malone | 2012

简  介  

  一对冷淡的父子,双方都处在起头新的家庭的边沿,偶然地来到了同一个他们的女友们的乡下别墅里。随着周末酿成了为难的推演,两对都感觉自己思疑起自己的未来。
  1. Video
  2. ID                                       : 1
  3. Format                                   : AVC
  4. Format/Info                              : Advanced Video Codec
  5. Format profile                           : [email protected]
  6. Format settings                          : CABAC / 4 Ref Frames
  7. Format settings, CABAC                   : Yes
  8. Format settings, Reference frames        : 4 frames
  9. Codec ID                                 : V_MPEG4/ISO/AVC
  10. Duration                                 : 1 h 42 min
  11. Bit rate mode                            : Constant
  12. Bit rate                                 : 6 912 kb/s
  13. Nominal bit rate                         : 10 000 kb/s
  14. Width                                    : 1 920 pixels
  15. Height                                   : 1 080 pixels
  16. Display aspect ratio                     : 16:9
  17. Frame rate mode                          : Constant
  18. Frame rate                               : 23.976 (24000/1001/189150) FPS
  19. Color space                              : YUV
  20. Chroma subsampling                       : 4:2:0
  21. Bit depth                                : 8 bits
  22. Scan type                                : Progressive
  23. Bits/(Pixel*Frame)                       : 0.139
  24. Stream size                              : 4.95 GiB (91%)
  25. Default                                  : Yes
  26. Forced                                   : No
  27. Color range                              : Limited
  28. Color primaries                          : BT.709
  29. Transfer characteristics                 : BT.709
  30. Matrix coefficients                      : BT.709

  31. Audio
  32. ID                                       : 2
  33. Format                                   : E-AC-3
  34. Format/Info                              : Enhanced AC-3
  35. Commercial name                          : Dolby Digital Plus
  36. Codec ID                                 : A_EAC3
  37. Duration                                 : 1 h 42 min
  38. Bit rate mode                            : Constant
  39. Bit rate                                 : 640 kb/s
  40. Channel(s)                               : 6 channels
  41. Channel layout                           : L R C LFE Ls Rs
  42. Sampling rate                            : 48.0 kHz
  43. Frame rate                               : 31.250 FPS (1536 SPF)
  44. Compression mode                         : Lossy
  45. Stream size                              : 470 MiB (8%)
  46. Service kind                             : Complete Main
  47. Default                                  : Yes
  48. Forced                                   : No

  49. Text #1
  50. ID                                       : 3
  51. Format                                   : UTF-8
  52. Codec ID                                 : S_TEXT/UTF8
  53. Codec ID/Info                            : UTF-8 Plain Text
  54. Duration                                 : 1 h 38 min
  55. Bit rate                                 : 61 b/s
  56. Count of elements                        : 1473
  57. Stream size                              : 44.6 KiB (0%)
  58. Language                                 : English
  59. Default                                  : No
  60. Forced                                   : No

  61. Text #2
  62. ID                                       : 4
  63. Format                                   : UTF-8
  64. Codec ID                                 : S_TEXT/UTF8
  65. Codec ID/Info                            : UTF-8 Plain Text
  66. Duration                                 : 1 h 39 min
  67. Bit rate                                 : 63 b/s
  68. Count of elements                        : 1581
  69. Stream size                              : 46.5 KiB (0%)
  70. Title                                    : SDH
  71. Language                                 : English
  72. Default                                  : No
  73. Forced                                   : No
复制代码

天性使然 In.Our.Nature.2012.1080p.AMZN.WEBRip.DDP5.1.x264-QOQ 5.41GB-2.png 天性使然 In.Our.Nature.2012.1080p.AMZN.WEBRip.DDP5.1.x264-QOQ 5.41GB-3.png 天性使然 In.Our.Nature.2012.1080p.AMZN.WEBRip.DDP5.1.x264-QOQ 5.41GB-4.png







回复

使用道具 举报

懒得打字嘛,点击右侧快捷回复 【右侧内容,后台自定义】
您需要登录后才可以回帖 登录 | 立即加入

本版积分规则

Archiver|小黑屋| 蓝光电影网 |网站地图

Copyright © 2021 Comsenz Inc. Powered by 蓝光电影网

蓝光电影网

本站内容由用户自主分享和转载自互联网,转载目的在于传递更多信息,并不代表本网赞同其观点和对其真实性负责。

如有侵权、违反国家法律政策行为,请联系我们,我们会第一时间及时清除和处理!

举报反馈邮箱:[email protected]

快速回复 返回顶部 返回列表