找回密码

蓝光电影网

查看: 102|回复: 0

[剧情] 我们结婚吧! Forev.2013.1080p.AMZN.WEBRip.DDP2.0.x264-TEPES 5.88GB

[复制链接]
蓝光币
515
发表于 2020-4-26 23:53:34 | 显示全部楼层 |阅读模式
我们成婚吧! Forev.2013.1080p.AMZN.WEBRip.DDP2.0.x264-TEPES 5.88GB-1.png

译  名 我们成婚吧!
片  名 Forev
年  代 2013
产  地 美国
语  言 英语
上映日期 2013-06(洛杉矶电影节)
IMDb评分  5.7/10 from 279 users
IMDb链接  https://www.imdb.com/title/tt2827192
豆瓣评分 0/10 from 0 users
豆瓣链接 https://movie.douban.com/subject/24522754/
导  演 Molly Green / James Leffler
编  剧 Molly Green / James Leffler
主  演 No?l Wells
       Matt Mider
       Amanda Bauer


标  签 婚礼

简  介  

  苏菲与彼特像是对情侣,但究竟上他们只是邻人。两人在去彼特妹妹洁西的大学女门生联谊会接她的路上,开了一个有关成婚的玩笑以及发生车子抛锚事务。在他们认清一切之前,他们订了婚…且陷在沙漠当中。当洁西与一位鬍鬚男消失后工作变得加倍複杂。FOREV《我们成婚吧!》是描写恋爱在没法真诚相同下若何保持的浪漫笑剧。
  1. Video
  2. ID                                       : 1
  3. Format                                   : AVC
  4. Format/Info                              : Advanced Video Codec
  5. Format profile                           : [email protected]
  6. Format settings                          : CABAC / 4 Ref Frames
  7. Format settings, CABAC                   : Yes
  8. Format settings, Reference frames        : 4 frames
  9. Format settings, GOP                     : M=4, N=48
  10. Codec ID                                 : V_MPEG4/ISO/AVC
  11. Duration                                 : 1 h 28 min
  12. Bit rate mode                            : Constant
  13. Bit rate                                 : 9 309 kb/s
  14. Nominal bit rate                         : 10 000 kb/s
  15. Width                                    : 1 920 pixels
  16. Height                                   : 1 080 pixels
  17. Display aspect ratio                     : 16:9
  18. Frame rate mode                          : Constant
  19. Frame rate                               : 23.976 (24000/1001/189150) FPS
  20. Color space                              : YUV
  21. Chroma subsampling                       : 4:2:0
  22. Bit depth                                : 8 bits
  23. Scan type                                : Progressive
  24. Bits/(Pixel*Frame)                       : 0.187
  25. Stream size                              : 5.74 GiB (98%)
  26. Default                                  : Yes
  27. Forced                                   : No
  28. Color range                              : Limited
  29. Color primaries                          : BT.709
  30. Transfer characteristics                 : BT.709
  31. Matrix coefficients                      : BT.709

  32. Audio
  33. ID                                       : 2
  34. Format                                   : E-AC-3
  35. Format/Info                              : Enhanced AC-3
  36. Commercial name                          : Dolby Digital Plus
  37. Codec ID                                 : A_EAC3
  38. Duration                                 : 1 h 28 min
  39. Bit rate mode                            : Constant
  40. Bit rate                                 : 224 kb/s
  41. Channel(s)                               : 2 channels
  42. Channel layout                           : L R
  43. Sampling rate                            : 48.0 kHz
  44. Frame rate                               : 31.250 FPS (1536 SPF)
  45. Compression mode                         : Lossy
  46. Stream size                              : 141 MiB (2%)
  47. Language                                 : English
  48. Service kind                             : Complete Main
  49. Default                                  : Yes
  50. Forced                                   : No

  51. Text #1
  52. ID                                       : 3
  53. Format                                   : UTF-8
  54. Codec ID                                 : S_TEXT/UTF8
  55. Codec ID/Info                            : UTF-8 Plain Text
  56. Duration                                 : 1 h 27 min
  57. Bit rate                                 : 66 b/s
  58. Count of elements                        : 1583
  59. Stream size                              : 43.1 KiB (0%)
  60. Title                                    : English
  61. Language                                 : English
  62. Default                                  : Yes
  63. Forced                                   : No

  64. Text #2
  65. ID                                       : 4
  66. Format                                   : UTF-8
  67. Codec ID                                 : S_TEXT/UTF8
  68. Codec ID/Info                            : UTF-8 Plain Text
  69. Duration                                 : 1 h 27 min
  70. Bit rate                                 : 66 b/s
  71. Count of elements                        : 1583
  72. Stream size                              : 43.1 KiB (0%)
  73. Title                                    : English [CC](SDH)
  74. Language                                 : English
  75. Default                                  : No
  76. Forced                                   : No
复制代码

我们成婚吧! Forev.2013.1080p.AMZN.WEBRip.DDP2.0.x264-TEPES 5.88GB-2.png 我们成婚吧! Forev.2013.1080p.AMZN.WEBRip.DDP2.0.x264-TEPES 5.88GB-3.png 我们成婚吧! Forev.2013.1080p.AMZN.WEBRip.DDP2.0.x264-TEPES 5.88GB-4.png







回复

使用道具 举报

懒得打字嘛,点击右侧快捷回复 【右侧内容,后台自定义】
您需要登录后才可以回帖 登录 | 立即加入

本版积分规则

Archiver|小黑屋| 蓝光电影网 |网站地图

Copyright © 2021 Comsenz Inc. Powered by 蓝光电影网

蓝光电影网

本站内容由用户自主分享和转载自互联网,转载目的在于传递更多信息,并不代表本网赞同其观点和对其真实性负责。

如有侵权、违反国家法律政策行为,请联系我们,我们会第一时间及时清除和处理!

举报反馈邮箱:[email protected]

快速回复 返回顶部 返回列表