找回密码

蓝光电影网

查看: 262|回复: 0

[动作] 致命弯道 Detour.2003.1080p.AMZN.WEBRip.DDP5.1.x264-TEPES 6.12GB

[复制链接]
蓝光币
511
发表于 2020-4-26 23:55:32 | 显示全部楼层 |阅读模式
致命弯道 Detour.2003.1080p.AMZN.WEBRip.DDP5.1.x264-TEPES 6.12GB-1.png

译  名 致命弯道
片  名 Detour
年  代 2003
产  地 美国
类  别 行动 / 惊悚 / 可骇
语  言 英语
上映日期 2003-12-02
IMDb评分  4.1/10 from 706 users
IMDb链接  https://www.imdb.com/title/tt0319495
豆瓣评分 0/10 from 0 users
豆瓣链接 https://movie.douban.com/subject/10529046/
导  演 Steve Taylor
编  剧 Steve Taylor / Steve Grabowsky
主  演 Ashley Reed
       Aaron Buer
       Brent Taylor
       Danna Brady
       Kelsey Wedeen


标  签 电影 | USA | Horror&Thriller | 美国 | 可骇 | wwwwrr | 渣滓 | 12

简  介  

  While returning to Los Angeles in a trailer through the desert, the driver Neil convinces his friends Tara, Harmony, Loopz, Michelle, Lee and Cashie to take a detour to an isolated mine where it could have a plantation of peyote. The owner of a gas station advises the group to not go to the place, but the stubborn Neil does not pay attention to his words. While driving in a secondary road, Neil sees a girl and wrecks the car in a rock. He decides to walk back to the gas station to call a tow truck, while Michelle and Lee climb a hill trying to get signal to their cell phones. Sooner the teenagers find that they are under siege of a group of sadistic deformed cannibals and they have to fight to survive.
  1. Video
  2. ID                                       : 1
  3. Format                                   : AVC
  4. Format/Info                              : Advanced Video Codec
  5. Format profile                           : [email protected]
  6. Format settings                          : CABAC / 4 Ref Frames
  7. Format settings, CABAC                   : Yes
  8. Format settings, Reference frames        : 4 frames
  9. Format settings, GOP                     : M=4, N=48
  10. Codec ID                                 : V_MPEG4/ISO/AVC
  11. Duration                                 : 1 h 26 min
  12. Bit rate mode                            : Constant
  13. Bit rate                                 : 9 494 kb/s
  14. Nominal bit rate                         : 10 000 kb/s
  15. Width                                    : 1 920 pixels
  16. Height                                   : 1 080 pixels
  17. Display aspect ratio                     : 16:9
  18. Frame rate mode                          : Constant
  19. Frame rate                               : 23.976 (24000/1001/189150) FPS
  20. Color space                              : YUV
  21. Chroma subsampling                       : 4:2:0
  22. Bit depth                                : 8 bits
  23. Scan type                                : Progressive
  24. Bits/(Pixel*Frame)                       : 0.191
  25. Stream size                              : 5.73 GiB (94%)
  26. Language                                 : English
  27. Default                                  : Yes
  28. Forced                                   : No
  29. Color range                              : Limited
  30. Color primaries                          : BT.709
  31. Transfer characteristics                 : BT.709
  32. Matrix coefficients                      : BT.709

  33. Audio
  34. ID                                       : 2
  35. Format                                   : E-AC-3
  36. Format/Info                              : Enhanced AC-3
  37. Commercial name                          : Dolby Digital Plus
  38. Codec ID                                 : A_EAC3
  39. Duration                                 : 1 h 26 min
  40. Bit rate mode                            : Constant
  41. Bit rate                                 : 640 kb/s
  42. Channel(s)                               : 6 channels
  43. Channel layout                           : L R C LFE Ls Rs
  44. Sampling rate                            : 48.0 kHz
  45. Frame rate                               : 31.250 FPS (1536 SPF)
  46. Compression mode                         : Lossy
  47. Stream size                              : 396 MiB (6%)
  48. Language                                 : English
  49. Service kind                             : Complete Main
  50. Default                                  : Yes
  51. Forced                                   : No

  52. Text
  53. ID                                       : 3
  54. Format                                   : UTF-8
  55. Codec ID                                 : S_TEXT/UTF8
  56. Codec ID/Info                            : UTF-8 Plain Text
  57. Duration                                 : 1 h 25 min
  58. Bit rate                                 : 36 b/s
  59. Count of elements                        : 1264
  60. Stream size                              : 23.2 KiB (0%)
  61. Title                                    : English [CC](SDH)
  62. Language                                 : English
  63. Default                                  : Yes
  64. Forced                                   : No
复制代码

致命弯道 Detour.2003.1080p.AMZN.WEBRip.DDP5.1.x264-TEPES 6.12GB-2.png 致命弯道 Detour.2003.1080p.AMZN.WEBRip.DDP5.1.x264-TEPES 6.12GB-3.png 致命弯道 Detour.2003.1080p.AMZN.WEBRip.DDP5.1.x264-TEPES 6.12GB-4.png







回复

使用道具 举报

懒得打字嘛,点击右侧快捷回复 【右侧内容,后台自定义】
您需要登录后才可以回帖 登录 | 立即加入

本版积分规则

Archiver|小黑屋| 蓝光电影网 |网站地图

Copyright © 2021 Comsenz Inc. Powered by 蓝光电影网

蓝光电影网

本站内容由用户自主分享和转载自互联网,转载目的在于传递更多信息,并不代表本网赞同其观点和对其真实性负责。

如有侵权、违反国家法律政策行为,请联系我们,我们会第一时间及时清除和处理!

举报反馈邮箱:[email protected]

快速回复 返回顶部 返回列表