找回密码

蓝光电影网

查看: 89|回复: 0

[剧情] 超级奖杯/权力争锋 Beyond.the.Trophy.2012.1080p.AMZN.WEBRip.DDP5.1.x264-TEPES 7.12GB

[复制链接]
蓝光币
511
发表于 2020-4-26 23:57:31 | 显示全部楼层 |阅读模式
超级奖杯/权利争锋 Beyond.the.Trophy.2012.1080p.AMZN.WEBRip.DDP5.1.x264-TEPES 7.12GB-1.png

译  名 超级奖杯 / 权利争锋(台)
片  名 Beyond the Trophy
年  代 2012
产  地 美国
类  别 剧情 / 行动 / 犯罪
语  言 英语
IMDb评分  5.0/10 from 281 users
IMDb链接  https://www.imdb.com/title/tt1891970
豆瓣评分 0/10 from 0 users
豆瓣链接 https://movie.douban.com/subject/6874541/
导  演 Daniel J. Gillin
编  剧 Michael Adam Hamilton / Daniel J. Gillin
主  演 迈克尔·马德森 Michael Madsen
       Stephen Cloud
       埃里克·罗伯茨 Eric Roberts
       罗伯特·米亚诺 Robert Miano


标  签 犯罪 | 黑帮 | 美国电影 | 美国 | 2012 | MichaelMadsen

简  介  

  影片报告的是汉子迷恋权利和他们怎样将去争取这些权利。在洛杉矶和拉斯维加斯,以基诺(罗伯特·迈阿诺 饰)和科尔(迈克尔·马德森 饰)为首的两个敌对帮派都在争取控制权。丹尼是洛杉矶警方卧底侦察,他深入黑社会,渗透到一个帮派想把握大势。一路上,他和美丽诱人的安琪拉纠缠不清......
  1. Video
  2. ID                                       : 1
  3. Format                                   : AVC
  4. Format/Info                              : Advanced Video Codec
  5. Format profile                           : [email protected]
  6. Format settings                          : CABAC / 4 Ref Frames
  7. Format settings, CABAC                   : Yes
  8. Format settings, Reference frames        : 4 frames
  9. Codec ID                                 : V_MPEG4/ISO/AVC
  10. Duration                                 : 1 h 38 min
  11. Bit rate mode                            : Constant
  12. Bit rate                                 : 10 000 kb/s
  13. Width                                    : 1 920 pixels
  14. Height                                   : 1 080 pixels
  15. Display aspect ratio                     : 16:9
  16. Frame rate mode                          : Constant
  17. Frame rate                               : 23.976 (24000/1001/189150) FPS
  18. Color space                              : YUV
  19. Chroma subsampling                       : 4:2:0
  20. Bit depth                                : 8 bits
  21. Scan type                                : Progressive
  22. Bits/(Pixel*Frame)                       : 0.201
  23. Stream size                              : 6.68 GiB (94%)
  24. Language                                 : English
  25. Default                                  : Yes
  26. Forced                                   : No
  27. Color range                              : Limited
  28. Color primaries                          : BT.709
  29. Transfer characteristics                 : BT.709
  30. Matrix coefficients                      : BT.709

  31. Audio
  32. ID                                       : 2
  33. Format                                   : E-AC-3
  34. Format/Info                              : Enhanced AC-3
  35. Commercial name                          : Dolby Digital Plus
  36. Codec ID                                 : A_EAC3
  37. Duration                                 : 1 h 38 min
  38. Bit rate mode                            : Constant
  39. Bit rate                                 : 640 kb/s
  40. Channel(s)                               : 6 channels
  41. Channel layout                           : L R C LFE Ls Rs
  42. Sampling rate                            : 48.0 kHz
  43. Frame rate                               : 31.250 FPS (1536 SPF)
  44. Compression mode                         : Lossy
  45. Stream size                              : 449 MiB (6%)
  46. Language                                 : English
  47. Service kind                             : Complete Main
  48. Default                                  : Yes
  49. Forced                                   : No

  50. Text
  51. ID                                       : 3
  52. Format                                   : UTF-8
  53. Codec ID                                 : S_TEXT/UTF8
  54. Codec ID/Info                            : UTF-8 Plain Text
  55. Duration                                 : 1 h 37 min
  56. Bit rate                                 : 80 b/s
  57. Count of elements                        : 2852
  58. Stream size                              : 57.5 KiB (0%)
  59. Title                                    : English [CC](SDH)
  60. Language                                 : English
  61. Default                                  : Yes
  62. Forced                                   : No
复制代码

超级奖杯/权利争锋 Beyond.the.Trophy.2012.1080p.AMZN.WEBRip.DDP5.1.x264-TEPES 7.12GB-2.png 超级奖杯/权利争锋 Beyond.the.Trophy.2012.1080p.AMZN.WEBRip.DDP5.1.x264-TEPES 7.12GB-3.png 超级奖杯/权利争锋 Beyond.the.Trophy.2012.1080p.AMZN.WEBRip.DDP5.1.x264-TEPES 7.12GB-4.png







回复

使用道具 举报

懒得打字嘛,点击右侧快捷回复 【右侧内容,后台自定义】
您需要登录后才可以回帖 登录 | 立即加入

本版积分规则

Archiver|小黑屋| 蓝光电影网 |网站地图

Copyright © 2021 Comsenz Inc. Powered by 蓝光电影网

蓝光电影网

本站内容由用户自主分享和转载自互联网,转载目的在于传递更多信息,并不代表本网赞同其观点和对其真实性负责。

如有侵权、违反国家法律政策行为,请联系我们,我们会第一时间及时清除和处理!

举报反馈邮箱:[email protected]

快速回复 返回顶部 返回列表